↑↓torrent.by
Поиск
Логин: Регистрация
Пароль: Восстановить пароль

Stand Up [09х01-03] (2021) WEBRip 1080p

Скачать stand-up-09h01-03-2021-webrip-1080p.torrent
U Магнитная ссылка Размер: 4.32 GB Раздают: 24 Качают: 8 Добавлен: 2021-09-14 06:33:50
Stand Up [09х01-03] (2021) WEBRip 1080p

Название: Stand Up
Год выхода: 2021
Жанр: ТВ-шоу, юмор

О фильме:
В 9 сезоне шоу Stand Up известные комики вновь берут в руки микрофон, чтобы рассказать о своих проблемах и вместе со зрителями посмеяться над ними. Участники будут выступать в новой студии, а их юмор неизменно будет актуален и хорош.

Страна: Россия
Студия: Телеканал ТНТ
Продолжительность: 3 х ~ 00:48:00
Язык: Русский

Премьера: 30 августа 2021 года (ТНТ)
Примечание: Без рекламы

Файл
Формат: MKV
Качество: WEBRip 1080p
Видео: MPEG-4 AVC, ~ 4500 Кбит/с, 1920x1072
Звук: AC3, 2 ch, 192 Кбит/с


[+] MI
Общее
Уникальный идентификатор                 : 226696780641112406747923400654568154393 (0xAA8C36396552B4DB6FA0DF8B9B71E519)
Полное имя                               : E:Stand.Up.S09.2021.WEB-DL.1080p1.Stand.Up.S09.2021.WEB-DL.1080p.mkv
Формат                                   : Matroska
Версия формата                           : Version 4
Размер файла                             : 1,48 Гбайт
Продолжительность                        : 45 м. 7 с.
Режим общего битрейта                    : Переменный
Общий поток                              : 4 691 Кбит/сек
Название фильма                          : 01.Stand.Up.S09.2021.WEB-DL.1080p
Дата кодирования                         : UTC 2021-08-30 20:01:39
Программа кодирования                    : mkvmerge v56.1.0 ('My Friend') 64-bit
Библиотека кодирования                   : libebml v1.4.2 + libmatroska v1.6.4
Attachments                              : poster.jpg

Видео
Идентификатор                            : 1
Формат                                   : AVC
Формат/Информация                        : Advanced Video Codec
Профиль формата                          : High@L4
Настройки формата                        : CABAC / 1 Ref Frames
Параметр CABAC формата                   : Да
Параметр RefFrames формата               : 1 кадр
Параметр GOP формата                     : M=1, N=50
Идентификатор кодека                     : V_MPEG4/ISO/AVC
Продолжительность                        : 45 м. 7 с.
Вид битрейта                             : Переменный
Битрейт                                  : 4 500 Кбит/сек
Ширина                                   : 1 920 пикселей
Высота                                   : 1 072 пикселя
Соотношение сторон                       : 16:9
Режим частоты кадров                     : Постоянный
Частота кадров                           : 25,000 кадров/сек
Цветовое пространство                    : YUV
Субдискретизация насыщенности            : 4:2:0
Битовая глубина                          : 8 бит
Тип развёртки                            : Прогрессивная
Бит/(Пиксели*Кадры)                      : 0.087
Размер потока                            : 1,42 Гбайт (96%)
Default                                  : Да
Forced                                   : Нет

Аудио
Идентификатор                            : 2
Формат                                   : AC-3
Формат/Информация                        : Audio Coding 3
Коммерческое название                    : Dolby Digital
Идентификатор кодека                     : A_AC3
Продолжительность                        : 45 м. 7 с.
Вид битрейта                             : Постоянный
Битрейт                                  : 192 Кбит/сек
Каналы                                   : 2 канала
Channel layout                           : L R
Частота                                  : 48,0 КГц
Частота кадров                           : 31,250 кадров/сек (1536 SPF)
Метод сжатия                             : С потерями
Размер потока                            : 62,0 Мбайт (4%)
Service kind                             : Complete Main
Default                                  : Да
Forced                                   : Нет



Скриншоты:
[+] Всего файлов в раздаче - 3:
03.Stand.Up.S09.2021.WEB-DL.1080p.mkv1.42 GB
02.Stand.Up.S09.2021.WEB-DL.1080p.mkv1.42 GB
01.Stand.Up.S09.2021.WEB-DL.1080p.mkv1.48 GB

Показать еще раздачи по запросу stand:
Сегодня U Stand Up [09х01-04] (2021) WEBRip от Files-x 2.25 GB ↑ 6 ↓ 15
2021-09-14 U Stand Up [09х01-03] (2021) WEBRip от Files-x 1.70 GB ↑ 53 ↓ 52
2021-09-14 U Stand Up [09х01-03] (2021) WEBRip 720p 2.93 GB ↑ 35 ↓ 21
2021-09-07 U Stand Up [09х01-02] (2021) WEBRip 1080p 2.90 GB ↑ 36 ↓ 31
2021-09-07 U Stand Up [09х01-02] (2021) WEBRip 720p 1.97 GB ↑ 58 ↓ 82
2021-09-06 U Stand Up [09х01] (2021) WEBRip от Files-x 580.56 MB ↑ 32 ↓ 4
2021-09-06 U Stand Up [09х01] (2021) WEBRip 720p от Files-x 1.01 GB ↑ 19 ↓ 4

Отзывы
Зарегистрируйтесь чтобы добавить комментарий.
Загрузите программу
  byTorrent
Обратная связь
Copyleft ©