↑↓torrent.by
Поиск
Логин: Регистрация
Пароль: Восстановить пароль

Stand Up [09х01-03] (2021) WEBRip 720p

Скачать stand-up-09h01-03-2021-webrip-720p.torrent
U Магнитная ссылка Размер: 2.93 GB Раздают: 35 Качают: 21 Добавлен: 2021-09-14 06:34:04
Stand Up [09х01-03] (2021) WEBRip 720p

Название: Stand Up
Год выхода: 2021
Жанр: ТВ-шоу, юмор

О фильме:
В 9 сезоне шоу Stand Up известные комики вновь берут в руки микрофон, чтобы рассказать о своих проблемах и вместе со зрителями посмеяться над ними. Участники будут выступать в новой студии, а их юмор неизменно будет актуален и хорош.

Страна: Россия
Студия: Телеканал ТНТ
Продолжительность: 3 х ~ 00:48:00
Язык: Русский

Премьера: 30 августа 2021 года (ТНТ)
Примечание: Без рекламы

Файл
Формат: MKV
Качество: WEBRip 720p
Видео: MPEG-4 AVC, ~ 3000 Кбит/с, 1280x720
Звук: AC3, 2 ch, 192 Кбит/с


[+] MI
Общее
Уникальный идентификатор                 : 141106703858858806125695778574910794589 (0x6A2829A238BD804FB9127E6A0176AB5D)
Полное имя                               : E:Stand.Up.S09.2021.WEB-DL.720p1.Stand.Up.S09.2021.WEB-DL.720p.mkv
Формат                                   : Matroska
Версия формата                           : Version 4
Размер файла                             : 1,01 Гбайт
Продолжительность                        : 45 м. 7 с.
Режим общего битрейта                    : Переменный
Общий поток                              : 3 189 Кбит/сек
Название фильма                          : 01.Stand.Up.S09.2021.WEB-DL.720p
Дата кодирования                         : UTC 2021-08-30 20:02:43
Программа кодирования                    : mkvmerge v60.0.0 ('Are We Copies?') 64-bit
Библиотека кодирования                   : libebml v1.4.2 + libmatroska v1.6.4
Attachments                              : poster.jpg

Видео
Идентификатор                            : 1
Формат                                   : AVC
Формат/Информация                        : Advanced Video Codec
Профиль формата                          : High@L3.1
Настройки формата                        : CABAC / 1 Ref Frames
Параметр CABAC формата                   : Да
Параметр RefFrames формата               : 1 кадр
Параметр GOP формата                     : M=1, N=50
Идентификатор кодека                     : V_MPEG4/ISO/AVC
Продолжительность                        : 45 м. 7 с.
Вид битрейта                             : Переменный
Битрейт                                  : 3 000 Кбит/сек
Ширина                                   : 1 280 пикселей
Высота                                   : 720 пикселей
Соотношение сторон                       : 16:9
Режим частоты кадров                     : Постоянный
Частота кадров                           : 25,000 кадров/сек
Цветовое пространство                    : YUV
Субдискретизация насыщенности            : 4:2:0
Битовая глубина                          : 8 бит
Тип развёртки                            : Прогрессивная
Бит/(Пиксели*Кадры)                      : 0.130
Размер потока                            : 967 Мбайт (94%)
Default                                  : Да
Forced                                   : Нет

Аудио
Идентификатор                            : 2
Формат                                   : AC-3
Формат/Информация                        : Audio Coding 3
Коммерческое название                    : Dolby Digital
Идентификатор кодека                     : A_AC3
Продолжительность                        : 45 м. 7 с.
Вид битрейта                             : Постоянный
Битрейт                                  : 192 Кбит/сек
Каналы                                   : 2 канала
Channel layout                           : L R
Частота                                  : 48,0 КГц
Частота кадров                           : 31,250 кадров/сек (1536 SPF)
Метод сжатия                             : С потерями
Размер потока                            : 62,0 Мбайт (6%)
Service kind                             : Complete Main
Default                                  : Да
Forced                                   : Нет



Скриншоты:
[+] Всего файлов в раздаче - 3:
03.Stand.Up.S09.2021.WEB-DL.720p.mkv987.08 MB
02.Stand.Up.S09.2021.WEB-DL.720p.mkv988.29 MB
01.Stand.Up.S09.2021.WEB-DL.720p.mkv1.01 GB

Показать еще раздачи по запросу stand:
Сегодня U Stand Up [09х01-04] (2021) WEBRip от Files-x 2.25 GB ↑ 6 ↓ 15
2021-09-14 U Stand Up [09х01-03] (2021) WEBRip от Files-x 1.70 GB ↑ 53 ↓ 52
2021-09-14 U Stand Up [09х01-03] (2021) WEBRip 1080p 4.32 GB ↑ 24 ↓ 8
2021-09-07 U Stand Up [09х01-02] (2021) WEBRip 1080p 2.90 GB ↑ 36 ↓ 31
2021-09-07 U Stand Up [09х01-02] (2021) WEBRip 720p 1.97 GB ↑ 58 ↓ 82
2021-09-06 U Stand Up [09х01] (2021) WEBRip от Files-x 580.56 MB ↑ 32 ↓ 4
2021-09-06 U Stand Up [09х01] (2021) WEBRip 720p от Files-x 1.01 GB ↑ 19 ↓ 4

Отзывы
Зарегистрируйтесь чтобы добавить комментарий.
Загрузите программу
  byTorrent
Обратная связь
Copyleft ©