↑↓Torrent.by
Поиск
Логин: Регистрация
Пароль: Восстановить пароль

Человек-паук: Вдали от дома / Spider-Man: Far from Home (2019) WEB-DL 1080p от селезень | HDRezka Studio

Скачать chelovek-pauk-vdali-ot-doma-spider-man-far-from-home-2019-web-dl-1080p-selezen-hdrezka-studio.torrent
U Магнитная ссылка Размер: 7.36 GB Раздают: 247 Качают: 121 Добавлен: 2019-09-17 13:12:00
Человек-паук: Вдали от дома / Spider-Man: Far from Home (2019) WEB-DL 1080p от селезень | HDRezka Studio

Название: Человек-паук: Вдали от дома
Оригинальное название: Spider-Man: Far from Home
Год выхода: 2019
Жанр: Фантастика, боевик, приключения
Режиссер: Джон Уоттс
В ролях: Том Холланд (II), Зендая Колеман, Энгаури Райс, Джон Фавро, Джейк Джилленхол, Сэмюэл Л. Джексон, Коби Смолдерс, Мариса Томей, Мартин Старр, Нуман Аджар, Джейкоб Баталон, Тони Револори

О фильме: Питер Паркер вместе с друзьями отправляется на летние каникулы в Европу. Однако отдохнуть приятелям вряд ли удастся - Питеру придется согласиться помочь Нику Фьюри раскрыть тайну существ, вызывающих стихийные бедствия и разрушения по всему континенту.

Страна: США
Студия: Columbia Pictures, Marvel Studios, Pascal Pictures
Продолжительность: 02:09:21
Перевод: Профессиональный многоголосый | HDRezka Studio

Качество: WEB-DL 1080p
Видео: MPEG-4 AVC, 1920x800, 7305 Kbit/s, 23.976 fps
Аудио #01: 48 kHz, AC3, 2.0, 192 Kbps | HDRezka Studio | RUS |
Аудио #02: 48 kHz, E-AC3, 5.1, 640 Kbps | Оригинал |  ENG |
Субтитры: Английские

Релиз:


[+] MI
General
Unique ID                   : 94385317781896629895875426285584825575 (0x4701F37399996DFF0B8A3F52490EBCE7)
Complete name               : D:Video111Spider-Man.Far.from.Home.2019.AMZN.WEB-DL.1080p.seleZen.mkv
Format                      : Matroska
Format version              : Version 4
File size                   : 7.36 GiB
Duration                    : 2 h 9 min
Overall bit rate            : 8 140 kb/s
Movie name                  : Spider-Man Far from Home 2019 from селезень
Encoded date                : UTC 2019-09-17 08:21:13
Writing application         : mkvmerge v22.0.0 ('At The End Of The World') 64-bit
Writing library             : libebml v1.3.5 + libmatroska v1.4.8

Video
ID                          : 1
Format                      : AVC
Format/Info                 : Advanced Video Codec
Format profile              : High@L4
Format settings             : CABAC / 4 Ref Frames
Format settings, CABAC      : Yes
Format settings, Reference  : 4 frames
Codec ID                    : V_MPEG4/ISO/AVC
Duration                    : 2 h 9 min
Bit rate mode               : Constant
Bit rate                    : 7 305 kb/s
Nominal bit rate            : 10 000 kb/s
Width                       : 1 920 pixels
Height                      : 800 pixels
Display aspect ratio        : 2.40:1
Frame rate mode             : Constant
Frame rate                  : 23.976 (24000/1001) FPS
Color space                 : YUV
Chroma subsampling          : 4:2:0
Bit depth                   : 8 bits
Scan type                   : Progressive
Bits/(Pixel*Frame)          : 0.198
Stream size                 : 6.60 GiB (90%)
Language                    : English
Default                     : Yes
Forced                      : No
Color range                 : Limited
Color primaries             : BT.709
Transfer characteristics    : BT.709
Matrix coefficients         : BT.709

Audio #1
ID                          : 2
Format                      : AC-3
Format/Info                 : Audio Coding 3
Commercial name             : Dolby Digital
Codec ID                    : A_AC3
Duration                    : 2 h 9 min
Bit rate mode               : Constant
Bit rate                    : 192 kb/s
Channel(s)                  : 2 channels
Channel layout              : L R
Sampling rate               : 48.0 kHz
Frame rate                  : 31.250 FPS (1536 SPF)
Bit depth                   : 16 bits
Compression mode            : Lossy
Stream size                 : 178 MiB (2%)
Title                       : MVO [HDRezka Studio]
Language                    : Russian
Service kind                : Complete Main
Default                     : Yes
Forced                      : Yes

Audio #2
ID                          : 3
Format                      : E-AC-3
Format/Info                 : Enhanced AC-3
Commercial name             : Dolby Digital Plus
Codec ID                    : A_EAC3
Duration                    : 2 h 9 min
Bit rate mode               : Constant
Bit rate                    : 640 kb/s
Channel(s)                  : 6 channels
Channel layout              : L R C LFE Ls Rs
Sampling rate               : 48.0 kHz
Frame rate                  : 31.250 FPS (1536 SPF)
Compression mode            : Lossy
Stream size                 : 592 MiB (8%)
Title                       : Original
Language                    : English
Service kind                : Complete Main
Default                     : No
Forced                      : No

Text #1
ID                          : 4
Format                      : UTF-8
Codec ID                    : S_TEXT/UTF8
Codec ID/Info               : UTF-8 Plain Text
Duration                    : 2 h 7 min
Bit rate                    : 65 b/s
Count of elements           : 2073
Stream size                 : 61.4 KiB (0%)
Title                       : Full
Language                    : English
Default                     : No
Forced                      : No

Text #2
ID                          : 5
Format                      : UTF-8
Codec ID                    : S_TEXT/UTF8
Codec ID/Info               : UTF-8 Plain Text
Duration                    : 2 h 8 min
Bit rate                    : 70 b/s
Count of elements           : 2418
Stream size                 : 66.1 KiB (0%)
Title                       : SDH
Language                    : English
Default                     : No
Forced                      : No

Menu
00:00:00.000                : en:Studio Logo
00:00:33.000                : en:A mysterious cyclone
00:01:47.000                : en:Title Sequence
00:02:24.000                : en:Moving on after The Blip
00:04:11.000                : en:Peter has a plan to woo MJ
00:05:53.000                : en:A benefit for the homeless
00:08:37.000                : en:Big shoes to fill
00:09:34.000                : en:Peter needs a vacation
00:14:51.000                : en:Arriving in Venice
00:18:20.000                : en:Peter finds the perfect gift for MJ
00:19:33.000                : en:A surprise attack on Venice
00:25:18.000                : en:An unexpected visitor
00:30:35.000                : en:The myths of Elementals
00:34:23.000                : en:A hijacked summer vacation
00:39:26.000                : en:A powerful gift from Tony
00:41:56.000                : en:Danger in Prague
00:49:49.000                : en:Fighting the fire Elemental
00:57:09.000                : en:The truth about Quentin Beck
01:04:50.000                : en:Taking advantage of their last night in the city
01:10:30.000                : en:Mysterio puts his plan into action
01:13:42.000                : en:Peter heads to Berlin to warn Fury
01:17:50.000                : en:The power of illusions
01:22:48.000                : en:Peter wakes up in the Netherlands
01:25:39.000                : en:Happy offers Peter some advice
01:29:24.000                : en:Everything converges in London
01:35:08.000                : en:Fighting the illusion from the inside
01:43:34.000                : en:The power of the Peter-tingle
01:49:01.000                : en:Nothing goes according to plan
01:52:16.000                : en:Arriving back home
01:55:33.000                : en:End Credits
01:57:41.000                : en:Title Sequence
01:57:45.000                : en:BONUS: End Credit Scene 1
01:59:23.000                : en:End Credits
02:07:17.000                : en:BONUS: End Credit Scene 2
02:08:56.000                : en:Acknowledgement



Скриншоты:
[+] Всего файлов в раздаче - 1:
Spider-Man.Far.from.Home.2019.AMZN.WEB-DL.1080p.seleZen.mkv7.36 GB

Показать еще раздачи по запросу человек:
Вчера U Человек и закон [эфир 17.01] (2020) SATRip от GeneralFilm 809.93 MB ↑ 24 ↓ 2
2020-01-06 U Джеймс Мэй: Наш человек в Японии / James May: Our man in Japan [01х01 из 06] (2020) WEBRip 1080p | Jetvis Studio 2.91 GB ↑ 152 ↓ 50
2020-01-05 U Человек без сердца [01-04 из 04] (2018) WEB-DLRip от Files-x 2.42 GB ↑ 82 ↓ 40
2020-01-01 U Человек-паук: Через вселенные / Spider-Man: Into the Spider-Verse (2018) BDRip 1080p от qqss44 & MegaPeer | Лицензия 7.78 GB ↑ 39 ↓ 12
2019-12-27 U Человек и закон [эфир 27.12] (2019) SATRip от GeneralFilm 639.95 MB ↑ 96 ↓ 17
2019-10-24 U Человек-паук: Вдали от дома / Spider-Man: Far from Home (2019) HDRip от Scarabey | Лицензия 2.18 GB ↑ 297 ↓ 21
2019-10-23 U Человек-паук: Вдали от дома / Spider-Man: Far from Home (2019) BDRip 1080p от селезень | D, P | Лицензия 8.25 GB ↑ 93 ↓ 32

Отзывы
Зарегистрируйтесь чтобы добавить комментарий.
Обратная связь
Copyleft ©