↑↓Torrent.by
Поиск
Логин: Регистрация
Пароль: Восстановить пароль

Человек-паук: Вдали от дома / Spider-Man: Far from Home (2019) WEB-DL 1080p | P

Скачать chelovek-pauk-vdali-ot-doma-spider-man-far-from-home-2019-web-dl-1080p-p.torrent
U Магнитная ссылка Размер: 4.59 GB Раздают: 93 Качают: 87 Добавлен: 2019-09-17 13:12:18
Человек-паук: Вдали от дома / Spider-Man: Far from Home (2019) WEB-DL 1080p | P

Название: Человек-паук: Вдали от дома
Оригинальное название: Spider-Man: Far from Home
Год выхода: 2019
Жанр: Фантастика, боевик, приключения
Режиссер: Джон Уоттс
В ролях: Том Холланд (II), Зендая Колеман, Энгаури Райс, Джон Фавро, Джейк Джилленхол, Сэмюэл Л. Джексон, Коби Смолдерс, Мариса Томей, Мартин Старр, Нуман Аджар, Джейкоб Баталон, Тони Револори

О фильме:
Питер Паркер вместе с друзьями отправляется на летние каникулы в Европу. Однако отдохнуть приятелям вряд ли удастся - Питеру придется согласиться помочь Нику Фьюри раскрыть тайну существ, вызывающих стихийные бедствия и разрушения по всему континенту.

Страна: США
Студия: Columbia Pictures, Marvel Studios, Pascal Pictures
Продолжительность: 02:09:22
Перевод: Профессиональный многоголосый | HDRezka Studio

Файл
Кодек: x.264
Качество: WEB-DL 1080p | Spider.Man.Far.From.Home.2019.1080p.WEB-DL.DD5.1.H264-FGT
Видео: MPEG-4 AVC, 4503 Kбит/с, 1920x796, 23.976 кадр/с
Звук: ► Без Рекламы!
Аудио #1: Русский (АС3, 2 ch, 192 Кбит/с, 48.0 KHz) Профессиональный (многоголосый, закадровый) HDRezka Studio
Аудио #2: Английский (АС3, 6 ch, 384 Кбит/с, 48.0 KHz)
Субтитры: английские


[+] MediaInfo
Источник: Spider.Man.Far.From.Home.2019.1080p.WEB-DL.DD5.1.H264-FGT
General
Unique ID                      : 174783753485183126457001825477961280793 (0x837E205FE03F2A0D9902FA1A78B16D19)
Complete name                  : Spider.Man.Far.From.Home.2019.WEB-DL.1080p.mkv
Format                         : Matroska
Format version                 : Version 4
File size                      : 4.59 GiB
Duration                       : 2 h 9 min
Overall bit rate               : 5 081 kb/s
Movie name                     : Spider-Man.Far.From.Home.2019.1080p.WEB-DL.DD5.1.H264-FGT
Encoded date                   : UTC 2019-09-17 08:17:06
Writing application            : mkvmerge v7.1.0 ('Good Love') 64bit built on Jul 27 2014 13:06:55
Writing library                : libebml v1.3.0 + libmatroska v1.4.1

Video
ID                             : 1
Format                         : AVC
Format/Info                    : Advanced Video Codec
Format profile                 : High@L4
Format settings                : CABAC / 5 Ref Frames
Format settings, CABAC         : Yes
Format settings, Reference fra : 5 frames
Codec ID                       : V_MPEG4/ISO/AVC
Duration                       : 2 h 9 min
Bit rate                       : 4 503 kb/s
Width                          : 1 920 pixels
Height                         : 796 pixels
Display aspect ratio           : 2.40:1
Frame rate mode                : Constant
Frame rate                     : 23.976 (24000/1001) FPS
Color space                    : YUV
Chroma subsampling             : 4:2:0
Bit depth                      : 8 bits
Scan type                      : Progressive
Bits/(Pixel*Frame)             : 0.123
Stream size                    : 4.07 GiB (89%)
Language                       : English
Default                        : Yes
Forced                         : No
Color range                    : Limited
Color primaries                : BT.709
Transfer characteristics       : BT.709
Matrix coefficients            : BT.709

Audio #1
ID                             : 2
Format                         : AC-3
Format/Info                    : Audio Coding 3
Commercial name                : Dolby Digital
Codec ID                       : A_AC3
Duration                       : 2 h 9 min
Bit rate mode                  : Constant
Bit rate                       : 192 kb/s
Channel(s)                     : 2 channels
Channel layout                 : L R
Sampling rate                  : 48.0 kHz
Frame rate                     : 31.250 FPS (1536 SPF)
Bit depth                      : 16 bits
Compression mode               : Lossy
Stream size                    : 178 MiB (4%)
Title                          : MVO | HDRezka Studio
Language                       : Russian
Service kind                   : Complete Main
Default                        : Yes
Forced                         : No

Audio #2
ID                             : 3
Format                         : AC-3
Format/Info                    : Audio Coding 3
Commercial name                : Dolby Digital
Codec ID                       : A_AC3
Duration                       : 2 h 9 min
Bit rate mode                  : Constant
Bit rate                       : 384 kb/s
Channel(s)                     : 6 channels
Channel layout                 : L R C LFE Ls Rs
Sampling rate                  : 48.0 kHz
Frame rate                     : 31.250 FPS (1536 SPF)
Bit depth                      : 16 bits
Compression mode               : Lossy
Stream size                    : 355 MiB (8%)
Language                       : English
Service kind                   : Complete Main
Default                        : No
Forced                         : No

Text
ID                             : 4
Format                         : UTF-8
Codec ID                       : S_TEXT/UTF8
Codec ID/Info                  : UTF-8 Plain Text
Duration                       : 2 h 7 min
Bit rate                       : 61 b/s
Count of elements              : 2072
Stream size                    : 57.1 KiB (0%)
Language                       : English
Default                        : No
Forced                         : No

Menu
00:00:00.000                   : en:1
00:09:34.031                   : en:2
00:16:05.714                   : en:3
00:25:17.474                   : en:4
00:35:25.498                   : en:5
00:41:56.013                   : en:6
00:49:49.027                   : en:7
00:57:08.508                   : en:8
01:04:49.635                   : en:9
01:15:56.218                   : en:10
01:22:48.088                   : en:11
01:29:24.192                   : en:12
01:36:42.254                   : en:13
01:44:46.363                   : en:14
01:52:16.396                   : en:15
01:57:44.432                   : en:16



Скриншоты:
[+] Всего файлов в раздаче - 1:
Spider.Man.Far.From.Home.2019.WEB-DL.1080p.mkv4.59 GB

Показать еще раздачи по запросу человек:
Вчера U Человек и закон [эфир 17.01] (2020) SATRip от GeneralFilm 809.93 MB ↑ 24 ↓ 2
2020-01-06 U Джеймс Мэй: Наш человек в Японии / James May: Our man in Japan [01х01 из 06] (2020) WEBRip 1080p | Jetvis Studio 2.91 GB ↑ 152 ↓ 50
2020-01-05 U Человек без сердца [01-04 из 04] (2018) WEB-DLRip от Files-x 2.42 GB ↑ 82 ↓ 40
2020-01-01 U Человек-паук: Через вселенные / Spider-Man: Into the Spider-Verse (2018) BDRip 1080p от qqss44 & MegaPeer | Лицензия 7.78 GB ↑ 39 ↓ 12
2019-12-27 U Человек и закон [эфир 27.12] (2019) SATRip от GeneralFilm 639.95 MB ↑ 96 ↓ 17
2019-10-24 U Человек-паук: Вдали от дома / Spider-Man: Far from Home (2019) HDRip от Scarabey | Лицензия 2.18 GB ↑ 297 ↓ 21
2019-10-23 U Человек-паук: Вдали от дома / Spider-Man: Far from Home (2019) BDRip 1080p от селезень | D, P | Лицензия 8.25 GB ↑ 93 ↓ 32

Отзывы
Зарегистрируйтесь чтобы добавить комментарий.
Обратная связь
Copyleft ©