↑↓Torrent.by
Поиск
Логин: Регистрация
Пароль: Восстановить пароль

Человек-паук: Вдали от дома / Spider-Man: Far from Home (2019) HDRip-AVC от ExKinoRay | HDRezka Studio

Скачать chelovek-pauk-vdali-ot-doma-spider-man-far-from-home-2019-hdrip-avc-exkinoray-hdrezka-studio.torrent
U Магнитная ссылка Размер: 746.19 MB Раздают: 138 Качают: 16 Добавлен: 2019-09-20 10:29:46
Человек-паук: Вдали от дома / Spider-Man: Far from Home (2019) HDRip-AVC от ExKinoRay | HDRezka Studio

Название: Человек-паук: Вдали от дома
Оригинальное название: Spider-Man: Far from Home
Год выхода: 2019
Жанр:  Фантастика, боевик, приключения
Режиссер: Джон Уоттс
В ролях: Том Холланд, Сэмюэл Эл Джексон, Зендея, Коби Смолдерс, Джон Фавро, Джей Би Смув, Джейк Джилленхол, Мартин Старр, Мариса Томей, Майкл Китон, Тони Револори, Джейкоб Баталон, Ангури Райс, Хемки Мадера, Реми Хии, Нуман Аджар, Джозеф Лонг, Йерун ван Конингсбругге, Бруно Билотта

О фильме:
Питер Паркер и его друзья отправляются на летние каникулы в Европу. Однако отдохнуть друзьям вряд ли удастся - Питеру придется помочь Нику Фьюри, чтобы раскрыть тайну, вызывающую стихийные бедствия и разрушения по всему миру. На Европу нападают существа из огня, воды и камня - элементали. Теперь Питер и Мистерио должны сразиться с этими существами...

Страна: США
Студия: Sony Pictures Releasing, Columbia Pictures Corporation, Marvel Studios
Продолжительность: 02:09:23
Перевод: Профессиональный (многоголосый, закадровый) | HDrezka Studio

Файл
Формат: MKV
Качество: HDRip-AVC
Видео: MPEG-4 AVC, 768x320, - 728 Кбит/с
Аудио:  AAC-HE, 2 ch, - 76 Кбит/с
Субтитры: Русские (Full), английские


[+] MI
Общее
Уникальный идентификатор : 125248630410252330320224807470901924564 (0x5E3A023F68F44AE2F07A8545E93692D4)
Полное имя : D:MOVIESSpider.Man.Far.from.Home.2019.HDRip-AVC.ExKinoRay.mkv
Формат : Matroska
Версия формата : Version 4 / Version 2
Размер файла : 746 Мбайт
Продолжительность : 2 ч. 9 м.
Общий поток : 806 Кбит/сек
Дата кодирования : UTC 2019-09-19 12:04:45
Программа кодирования : mkvmerge v35.0.0 ('All The Love In The World') 64-bit
Библиотека кодирования : libebml v1.3.9 + libmatroska v1.5.2

Видео
Идентификатор : 1
Формат : AVC
Формат/Информация : Advanced Video Codec
Профиль формата : High@L4.1
Параметр CABAC формата : Да
Параметр RefFrames формата : 12 кадров
Идентификатор кодека : V_MPEG4/ISO/AVC
Продолжительность : 2 ч. 9 м.
Битрейт : 728 Кбит/сек
Ширина : 768 пикселей
Высота : 320 пикселей
Соотношение сторон : 2,40:1
Режим частоты кадров : Постоянный
Частота кадров : 23,976 (24000/1001) кадра/сек
Цветовое пространство : YUV
Субдискретизация насыщенности : 4:2:0
Битовая глубина : 8 бит
Тип развёртки : Прогрессивная
Бит/(Пиксели*Кадры) : 0.124
Размер потока : 674 Мбайт (90%)
Библиотека кодирования : x264 core 152 r2851 ba24899
Настройки программы : cabac=1 / ref=12 / deblock=1:-3:-3 / analyse=0x3:0x133 / me=umh / subme=11 / psy=1 / psy_rd=1.00:0.10 / mixed_ref=1 / me_range=32 / chroma_me=1 / trellis=2 / 8x8dct=1 / cqm=0 / deadzone=21,11 / fast_pskip=0 / chroma_qp_offset=-3 / threads=6 / lookahead_threads=1 / sliced_threads=0 / nr=0 / decimate=0 / interlaced=0 / bluray_compat=0 / constrained_intra=0 / bframes=12 / b_pyramid=2 / b_adapt=2 / b_bias=0 / direct=3 / weightb=1 / open_gop=0 / weightp=2 / keyint=240 / keyint_min=23 / scenecut=40 / intra_refresh=0 / rc=2pass / mbtree=0 / bitrate=728 / ratetol=1.0 / qcomp=0.60 / qpmin=0 / qpmax=69 / qpstep=4 / cplxblur=20.0 / qblur=0.5 / ip_ratio=1.40 / pb_ratio=1.30 / aq=1:1.00
Default : Да
Forced : Нет

Аудио
Идентификатор : 2
Формат : AAC
Формат/Информация : Advanced Audio Codec
Профиль формата : HE-AAC / LC
Идентификатор кодека : A_AAC
Продолжительность : 2 ч. 9 м.
Битрейт : 76,0 Кбит/сек
Каналы : 2 канала
Расположение каналов : Front: L R
Частота : 48,0 КГц / 24,0 КГц
Частота кадров : 23,438 кадра/сек (1024 SPF)
Метод сжатия : С потерями
Задержка видео : 31 мс.
Размер потока : 70,3 Мбайт (9%)
Default : Да
Forced : Нет

Текст #1
Идентификатор : 3
Формат : UTF-8
Идентификатор кодека : S_TEXT/UTF8
Идентификатор кодека/Информация : UTF-8 Plain Text
Продолжительность : 2 ч. 8 м.
Битрейт : 92 бит/сек
ElementCount : 1666
Размер потока : 86,8 Кбайт (0%)
Заголовок : Full [Елена, Лев Вержбицкие]
Язык : Russian
Default : Нет
Forced : Нет

Текст #2
Идентификатор : 4
Формат : UTF-8
Идентификатор кодека : S_TEXT/UTF8
Идентификатор кодека/Информация : UTF-8 Plain Text
Продолжительность : 2 ч. 7 м.
Битрейт : 62 бит/сек
ElementCount : 1749
Размер потока : 58,2 Кбайт (0%)
Заголовок : Full
Язык : English
Default : Нет
Forced : Нет

Текст #3
Идентификатор : 5
Формат : UTF-8
Идентификатор кодека : S_TEXT/UTF8
Идентификатор кодека/Информация : UTF-8 Plain Text
Продолжительность : 2 ч. 8 м.
Битрейт : 68 бит/сек
ElementCount : 1929
Размер потока : 64,0 Кбайт (0%)
Заголовок : SDH
Язык : English
Default : Нет
Forced : Нет

Меню
00:00:00.000 : en:Chapter 01
00:09:35.033 : en:Chapter 02
00:16:06.716 : en:Chapter 03
00:25:18.475 : en:Chapter 04
00:35:26.499 : en:Chapter 05
00:41:57.014 : en:Chapter 06
00:49:50.029 : en:Chapter 07
00:57:09.509 : en:Chapter 08
01:04:50.637 : en:Chapter 09
01:15:57.219 : en:Chapter 10
01:22:49.089 : en:Chapter 11
01:29:25.193 : en:Chapter 12
01:36:43.256 : en:Chapter 13
01:44:47.364 : en:Chapter 14
01:52:17.397 : en:Chapter 15
01:57:45.433 : en:Chapter 16



Скриншоты:
[+] Всего файлов в раздаче - 1:
Spider.Man.Far.from.Home.2019.HDRip-AVC.ExKinoRay.mkv746.19 MB

Показать еще раздачи по запросу человек:
Вчера U Человек и закон [эфир 17.01] (2020) SATRip от GeneralFilm 809.93 MB ↑ 24 ↓ 2
2020-01-06 U Джеймс Мэй: Наш человек в Японии / James May: Our man in Japan [01х01 из 06] (2020) WEBRip 1080p | Jetvis Studio 2.91 GB ↑ 152 ↓ 50
2020-01-05 U Человек без сердца [01-04 из 04] (2018) WEB-DLRip от Files-x 2.42 GB ↑ 82 ↓ 40
2020-01-01 U Человек-паук: Через вселенные / Spider-Man: Into the Spider-Verse (2018) BDRip 1080p от qqss44 & MegaPeer | Лицензия 7.78 GB ↑ 39 ↓ 12
2019-12-27 U Человек и закон [эфир 27.12] (2019) SATRip от GeneralFilm 639.95 MB ↑ 96 ↓ 17
2019-10-24 U Человек-паук: Вдали от дома / Spider-Man: Far from Home (2019) HDRip от Scarabey | Лицензия 2.18 GB ↑ 297 ↓ 21
2019-10-23 U Человек-паук: Вдали от дома / Spider-Man: Far from Home (2019) BDRip 1080p от селезень | D, P | Лицензия 8.25 GB ↑ 93 ↓ 32

Отзывы
Зарегистрируйтесь чтобы добавить комментарий.
Обратная связь
Copyleft ©