↑↓Torrent.by
Поиск
Логин: Регистрация
Пароль: Восстановить пароль

Человек-паук: Вдали от дома / Spider-Man: Far from Home (2019) BDRip-AVC от OlLanDGroup | D, P | iTunes

Скачать chelovek-pauk-vdali-ot-doma-spider-man-far-from-home-2019-bdrip-avc-ollandgroup-d-p-itunes.torrent
U Магнитная ссылка Размер: 2.58 GB Раздают: 120 Качают: 49 Добавлен: 2019-09-26 18:24:37
Человек-паук: Вдали от дома / Spider-Man: Far from Home (2019) BDRip-AVC от OlLanDGroup | D, P | iTunes

Человек-паук: Вдали от дома / Spider-Man: Far from Home

Год выпуска: 2019
Страна: США
Производство: Columbia Pictures, Marvel Studios, Pascal Pictures
Жанр:  Фантастика, боевик, приключения

Режиссёр: Джон Уоттс
В ролях: Том Холланд (II), Зендая Колеман, Энгаури Райс, Джон Фавро, Джейк Джилленхол, Сэмюэл Л. Джексон, Коби Смолдерс, Мариса Томей, Мартин Старр, Нуман Аджар, Джейкоб Баталон, Тони Револори

Перевод: Дублированный | [iTunes], Профессиональный многоголосый | [HDRezka Studio]
Субтитры: Русские (форс., полные), английские (полные, SDH)
Реклама: Отсутствует

Описание: Питер Паркер вместе с одноклассниками отправляется на летние каникулы в Европу. Однако отдохнуть приятелям вряд ли удастся — по прибытии в Венецию группа попадет в эпицентр сражения. Некое существо, состоящее из воды, появляется из ниоткуда и начинает крушить всё на своём пути, и теперь Питеру придётся спасать европейские архитектурные памятники вместе с загадочным супергероем Мистерио.

Качество: BDRip-AVC | BDRemux | Spider.Man.Far.from.Home.2019.MVO.BDREMUX.1080p.seleZen
Продолжительность: 02:09:23

Формат: MKV
Видео кодек: MPEG-4 AVC
Аудио кодек: AC3
Видео: 1024x428 (2.40:1), 23,976 fps, x264 ~1 826 kbps avg, 0.174 bit/pixel
Аудио #1: 48 kHz, AC3 Dolby Digital, 3/2 (L,C,R,l,r) + LFE ch, ~384.00 kbps avg | RUS (iTunes)
Аудио #2: 48 kHz, AC3 Dolby Digital, 2 (L,R) ch, ~192.00 kbps avg | RUS (HDRezka Studio)
Аудио #3: 48 kHz, AC3 Dolby Digital, 3/2 (L,C,R,l,r) + LFE ch, ~448.00 kbps avg | ENG

Дата премьеры (мир): 26 июня 2019
Дата премьеры (РФ): 4 июля 2019, «WDSSPR»
Цифровой релиз: 26 сентября 2019, «Уолт Дисней Компани СНГ»

Релиз:


[+] MediaInfo

Общее
Уникальный идентификатор                 : 106455015222250583147276700653212513247 (0x50167D7AC6D31F7876C0A18E76A5B3DF)
Полное имя                               : F:OlLanDGroupSpider.Man.Far.from.Home.2019.BDRip(AVC).OllanDGroup.mkv
Формат                                   : Matroska
Версия формата                           : Version 4 / Version 2
Размер файла                             : 2,58 Гбайт
Продолжительность                        : 2 ч. 9 м.
Общий поток                              : 2854 Кбит/сек
Название фильма                          : Spider Man Far from Home 2019   #TorpedoUK#
Дата кодирования                         : UTC 2019-09-26 09:31:58
Программа кодирования                    : mkvmerge v29.0.0 ('Like It Or Not') 64-bit
Библиотека кодирования                   : libebml v1.3.6 + libmatroska v1.4.9

Видео
Идентификатор                            : 1
Формат                                   : AVC
Формат/Информация                        : Advanced Video Codec
Профиль формата                          : High@L4.1
Параметр CABAC формата                   : Да
Параметр ReFrames формата                : 10 кадров
Идентификатор кодека                     : V_MPEG4/ISO/AVC
Продолжительность                        : 2 ч. 9 м.
Битрейт                                  : 1826 Кбит/сек
Ширина                                   : 1024 пикселя
Высота                                   : 428 пикселей
Соотношение сторон                       : 2,40:1
Режим частоты кадров                     : Постоянный
Частота кадров                           : 23,976 (24000/1001) кадра/сек
Цветовое пространство                    : YUV
Субдискретизация насыщенности            : 4:2:0
Битовая глубина                          : 8 бит
Тип развёртки                            : Прогрессивная
Бит/(Пиксели*Кадры)                      : 0.174
Размер потока                            : 1,65 Гбайт (64%)
Библиотека кодирования                   : x264 core 146 r2538 121396c
Настройки программы                      : cabac=1 / ref=10 / deblock=1:-3:-3 / analyse=0x3:0x113 / me=umh / subme=11 / psy=1 / psy_rd=0.99:0.04 / mixed_ref=1 / me_range=48 / chroma_me=1 / trellis=2 / 8x8dct=1 / cqm=0 / deadzone=21,11 / fast_pskip=1 / chroma_qp_offset=-6 / threads=6 / lookahead_threads=1 / sliced_threads=0 / nr=0 / decimate=1 / interlaced=0 / bluray_compat=0 / constrained_intra=0 / bframes=11 / b_pyramid=2 / b_adapt=2 / b_bias=0 / direct=3 / weightb=1 / open_gop=0 / weightp=2 / keyint=240 / keyint_min=23 / scenecut=40 / intra_refresh=0 / rc_lookahead=40 / rc=2pass / mbtree=0 / bitrate=1826 / ratetol=1.0 / qcomp=0.60 / qpmin=0 / qpmax=69 / qpstep=4 / cplxblur=20.0 / qblur=0.5 / vbv_maxrate=50000 / vbv_bufsize=62500 / nal_hrd=none / filler=0 / ip_ratio=1.40 / pb_ratio=1.30 / aq=1:1.00
Язык                                     : English
Default                                  : Да
Forced                                   : Нет

Аудио #1
Идентификатор                            : 2
Формат                                   : AC-3
Формат/Информация                        : Audio Coding 3
Расширение режима                        : CM (complete main)
Параметр Endianness формата              : Big
Идентификатор кодека                     : A_AC3
Продолжительность                        : 2 ч. 9 м.
Вид битрейта                             : Постоянный
Битрейт                                  : 384 Кбит/сек
Каналы                                   : 6 каналов
Расположение каналов                     : Front: L C R, Side: L R, LFE
Частота                                  : 48,0 КГц
Частота кадров                           : 31,250 кадров/сек (1536 spf)
Битовая глубина                          : 16 бит
Метод сжатия                             : С потерями
Размер потока                            : 355 Мбайт (13%)
Заголовок                                : DUB [iTunes]
Язык                                     : Russian
Default                                  : Да
Forced                                   : Нет

Аудио #2
Идентификатор                            : 3
Формат                                   : AC-3
Формат/Информация                        : Audio Coding 3
Расширение режима                        : CM (complete main)
Параметр Endianness формата              : Big
Идентификатор кодека                     : A_AC3
Продолжительность                        : 2 ч. 9 м.
Вид битрейта                             : Постоянный
Битрейт                                  : 192 Кбит/сек
Каналы                                   : 2 канала
Расположение каналов                     : Front: L R
Частота                                  : 48,0 КГц
Частота кадров                           : 31,250 кадров/сек (1536 spf)
Битовая глубина                          : 16 бит
Метод сжатия                             : С потерями
Размер потока                            : 178 Мбайт (7%)
Заголовок                                : MVO [HDRezka Studio]
Язык                                     : Russian
Default                                  : Нет
Forced                                   : Нет

Аудио #3
Идентификатор                            : 4
Формат                                   : AC-3
Формат/Информация                        : Audio Coding 3
Расширение режима                        : CM (complete main)
Параметр Endianness формата              : Big
Идентификатор кодека                     : A_AC3
Продолжительность                        : 2 ч. 9 м.
Вид битрейта                             : Постоянный
Битрейт                                  : 448 Кбит/сек
Каналы                                   : 6 каналов
Расположение каналов                     : Front: L C R, Side: L R, LFE
Частота                                  : 48,0 КГц
Частота кадров                           : 31,250 кадров/сек (1536 spf)
Битовая глубина                          : 16 бит
Метод сжатия                             : С потерями
Размер потока                            : 415 Мбайт (16%)
Заголовок                                : [Original]
Язык                                     : English
Default                                  : Нет
Forced                                   : Нет

Текст #1
Идентификатор                            : 5
Формат                                   : UTF-8
Идентификатор кодека                     : S_TEXT/UTF8
Идентификатор кодека/Информация          : UTF-8 Plain Text
Продолжительность                        : 2 ч. 8 м.
Битрейт                                  : 0 бит/сек
Count of elements                        : 13
Размер потока                            : 582 байт (0%)
Заголовок                                : Forced
Язык                                     : Russian
Default                                  : Да
Forced                                   : Нет

Текст #2
Идентификатор                            : 6
Формат                                   : UTF-8
Идентификатор кодека                     : S_TEXT/UTF8
Идентификатор кодека/Информация          : UTF-8 Plain Text
Продолжительность                        : 2 ч. 8 м.
Битрейт                                  : 92 бит/сек
Count of elements                        : 1666
Размер потока                            : 86,8 Кбайт (0%)
Заголовок                                : Full
Язык                                     : Russian
Default                                  : Нет
Forced                                   : Нет

Текст #3
Идентификатор                            : 7
Формат                                   : UTF-8
Идентификатор кодека                     : S_TEXT/UTF8
Идентификатор кодека/Информация          : UTF-8 Plain Text
Продолжительность                        : 2 ч. 7 м.
Битрейт                                  : 62 бит/сек
Count of elements                        : 1749
Размер потока                            : 58,2 Кбайт (0%)
Заголовок                                : Full
Язык                                     : English
Default                                  : Нет
Forced                                   : Нет

Текст #4
Идентификатор                            : 8
Формат                                   : UTF-8
Идентификатор кодека                     : S_TEXT/UTF8
Идентификатор кодека/Информация          : UTF-8 Plain Text
Продолжительность                        : 2 ч. 8 м.
Битрейт                                  : 68 бит/сек
Count of elements                        : 1929
Размер потока                            : 64,0 Кбайт (0%)
Заголовок                                : SDH
Язык                                     : English
Default                                  : Нет
Forced                                   : Нет

Меню
00:00:00.000                             : en:Chapter 01
00:09:35.033                             : en:Chapter 02
00:16:06.716                             : en:Chapter 03
00:25:18.475                             : en:Chapter 04
00:35:26.499                             : en:Chapter 05
00:41:57.014                             : en:Chapter 06
00:49:50.029                             : en:Chapter 07
00:57:09.509                             : en:Chapter 08
01:04:50.637                             : en:Chapter 09
01:15:57.219                             : en:Chapter 10
01:22:49.089                             : en:Chapter 11
01:29:25.193                             : en:Chapter 12
01:36:43.256                             : en:Chapter 13
01:44:47.364                             : en:Chapter 14
01:52:17.397                             : en:Chapter 15
01:57:45.433                             : en:Chapter 16



Скриншоты:
[+] Всего файлов в раздаче - 1:
Spider.Man.Far.from.Home.2019.BDRip(AVC).OllanDGroup.mkv2.58 GB

Показать еще раздачи по запросу человек:
Вчера U Человек и закон [эфир 17.01] (2020) SATRip от GeneralFilm 809.93 MB ↑ 24 ↓ 2
2020-01-06 U Джеймс Мэй: Наш человек в Японии / James May: Our man in Japan [01х01 из 06] (2020) WEBRip 1080p | Jetvis Studio 2.91 GB ↑ 152 ↓ 50
2020-01-05 U Человек без сердца [01-04 из 04] (2018) WEB-DLRip от Files-x 2.42 GB ↑ 82 ↓ 40
2020-01-01 U Человек-паук: Через вселенные / Spider-Man: Into the Spider-Verse (2018) BDRip 1080p от qqss44 & MegaPeer | Лицензия 7.78 GB ↑ 39 ↓ 12
2019-12-27 U Человек и закон [эфир 27.12] (2019) SATRip от GeneralFilm 639.95 MB ↑ 96 ↓ 17
2019-10-24 U Человек-паук: Вдали от дома / Spider-Man: Far from Home (2019) HDRip от Scarabey | Лицензия 2.18 GB ↑ 297 ↓ 21
2019-10-23 U Человек-паук: Вдали от дома / Spider-Man: Far from Home (2019) BDRip 1080p от селезень | D, P | Лицензия 8.25 GB ↑ 93 ↓ 32

Отзывы
Зарегистрируйтесь чтобы добавить комментарий.
Обратная связь
Copyleft ©