↑↓torrent.by
Поиск
Логин: Регистрация
Пароль: Восстановить пароль

Форсаж: Хоббс и Шоу / Fast & Furious Presents: Hobbs & Shaw (2019) WEB-DL 720p от селезень | iTunes

Скачать forsazh-hobbs-i-shou-fast-furious-presents-shaw-2019-web-dl-720p-ot-selezen-itunes.torrent
U Магнитная ссылка Размер: 4.18 GB Раздают: 598 Качают: 188 Добавлен: 2019-09-28 07:40:32
Форсаж: Хоббс и Шоу / Fast & Furious Presents: Hobbs & Shaw (2019) WEB-DL 720p от селезень | iTunes

Название: Форсаж: Хоббс и Шоу
Оригинальное название: Fast & Furious Presents: Hobbs & Shaw
Год выхода: 2019
Жанр: Боевик, приключения
Режиссер: Дэвид Литч
В ролях: Дуэйн Джонсон, Джейсон Стэйтем, Идрис Эльба, Райан Рейнольдс, Ванесса Кирби, Хелен Миррен, Эйса Гонсалес, Эдди Марсан, Элиана Суа, Клифф Кёртис, Лори Пеленис Туисано

О фильме: Люк Хоббс - американский элитный спецагент, он любит удобную спортивную одежду, большие пикапы и здоровое питание. Декард Шоу - британский пижон, бывший сотрудник разведки, предпочитает дорогие костюмы, спортивные авто и длинноногих красоток. Эти двое ненавидят друг друга. Но если кто-то угрожает их семьям, они готовы пойти на все. Даже на работу в команде.

Страна: Великобритания, США
Студия: Universal Pictures
Продолжительность: 02:15:55
Перевод: Дублированный | iTunes

Качество: WEB-DL 720p
Видео: MPEG-4 AVC, 1280x532, 4019 Kbit/s, 23.976 fps
Аудио: 48 kHz, AC3, 5.1, 384 Kbps | iTunes | RUS |
Субтитры: Русские (форс. хардсаб)

Релиз:


[+] MI
General
Unique ID                   : 216553105563671414453213000626526216102 (0xA2EA9C6E22522F9FAFC5A8CFAABBDFA6)
Complete name               : D:Video111Fast.and.Furious.Presents.Hobbs.and.Shaw.2019.D.WEB-DL.720p.seleZen.mkv
Format                      : Matroska
Format version              : Version 4
File size                   : 4.18 GiB
Duration                    : 2 h 15 min
Overall bit rate            : 4 405 kb/s
Movie name                  : Fast and Furious Presents Hobbs and Shaw 2019 from селезень
Encoded date                : UTC 2019-09-27 20:10:17
Writing application         : mkvmerge v22.0.0 ('At The End Of The World') 64-bit
Writing library             : libebml v1.3.5 + libmatroska v1.4.8

Video
ID                          : 1
Format                      : AVC
Format/Info                 : Advanced Video Codec
Format profile              : Main@L3.1
Format settings             : 2 Ref Frames
Format settings, CABAC      : No
Format settings, Reference  : 2 frames
Codec ID                    : V_MPEG4/ISO/AVC
Duration                    : 2 h 15 min
Bit rate                    : 4 019 kb/s
Width                       : 1 280 pixels
Height                      : 532 pixels
Display aspect ratio        : 2.40:1
Frame rate mode             : Constant
Frame rate                  : 23.976 (24000/1001) FPS
Color space                 : YUV
Chroma subsampling          : 4:2:0
Bit depth                   : 8 bits
Scan type                   : Progressive
Bits/(Pixel*Frame)          : 0.246
Stream size                 : 3.82 GiB (91%)
Language                    : English
Default                     : Yes
Forced                      : No
Color range                 : Limited
Color primaries             : BT.709
Transfer characteristics    : BT.709
Matrix coefficients         : BT.709

Audio
ID                          : 2
Format                      : AC-3
Format/Info                 : Audio Coding 3
Commercial name             : Dolby Digital
Codec ID                    : A_AC3
Duration                    : 2 h 15 min
Bit rate mode               : Constant
Bit rate                    : 384 kb/s
Channel(s)                  : 6 channels
Channel layout              : L R C LFE Ls Rs
Sampling rate               : 48.0 kHz
Frame rate                  : 31.250 FPS (1536 SPF)
Bit depth                   : 16 bits
Compression mode            : Lossy
Stream size                 : 373 MiB (9%)
Title                       : iTunes
Language                    : Russian
Service kind                : Complete Main
Default                     : Yes
Forced                      : Yes

Menu
00:00:00.000                : en:1
00:04:59.049                : en:2
00:13:44.491                : en:3
00:19:22.453                : en:4
00:26:46.980                : en:5
00:35:42.514                : en:6
00:40:14.244                : en:7
00:46:23.028                : en:8
00:51:35.214                : en:9
00:57:52.799                : en:10
01:01:54.248                : en:11
01:08:46.158                : en:12
01:14:23.829                : en:13
01:19:49.070                : en:14
01:25:00.255                : en:15
01:32:59.191                : en:16
01:38:49.916                : en:17
01:46:33.962                : en:18
01:53:30.585                : en:19
02:01:15.800                : en:20



Скриншоты:
[+] Всего файлов в раздаче - 1:
Fast.and.Furious.Presents.Hobbs.and.Shaw.2019.D.WEB-DL.720p.seleZen.mkv4.18 GB

Похожие раздачи по запросу - форсаж:
2020-09-14 U Форсаж. Диабло / Diablo (2019) BDRip от ExKinoRay | D 1.46 GB ↑ 172 ↓ 54
2020-02-08 U Форсаж 9 / Fast & Furious 9 (2020) WEBRip 1080p | Трейлер №1 1,018.01 MB ↑ 217 ↓ 27
2019-12-29 U Форсаж: Шпионские гонки / Fast & Furious: Spy Racers [S01] (2019) WEBRip | IdeaFilm 2.59 GB ↑ 77 ↓ 14
2019-09-28 U Форсаж: Хоббс и Шоу / Fast & Furious Presents: Hobbs & Shaw (2019) WEB-DLRip от MegaPeer | iTunes 1.47 GB ↑ 1002 ↓ 359
2013-11-03 U Форсаж 5 / Fast Five (2011) HDRip | Лицензия 11К2.05 GB ↑ 1453 ↓ 56

Отзывы
Зарегистрируйтесь чтобы добавить комментарий.
Загрузите программу
  uTorrent.exe
Обратная связь
Copyleft ©