↑↓Torrent.by
Поиск
Логин: Регистрация
Пароль: Восстановить пароль
Загрузка...

Скуби-Ду: Возвращение на остров зомби / Scooby-Doo: Return to Zombie Island (2019) WEB-DL 1080p | L

Скачать skubi-du-vozvraschenie-na-ostrov-zombi-scooby-doo-return-to-zombie-island-2019-web-dl-1080p-l.torrent
U Магнитная ссылка Размер: 3.33 GB Раздают: 103 Качают: 30 Добавлен: 2019-09-28 07:41:22
Скуби-Ду: Возвращение на остров зомби / Scooby-Doo: Return to Zombie Island (2019) WEB-DL 1080p | L

Скуби-Ду: Возвращение на остров зомби / Scooby-Doo: Return to Zombie Island

Страна: США
Производство: Warner Bros. Animation, Hanna-Barbera Home Video
Год выпуска: 2019
Жанр:  мультфильм, фэнтези, комедия, детектив
Продолжительность: 01:19:47

Режиссеры: Сесилия Аранович, Этан Сполдинг
Роли озвучивали: Грэй Гриффин, Мэттью Лиллард, Кейт Микуччи, Фрэнк Уэлкер, Дженелл Кокс, Дэвид Херман, Джон Майкл Хиггинс, Кассандра Петерсон

Описание: Приключения Скуби-Ду и его друзей продолжаются. Для расследования очередной загадки компания отправляется в отпуск на отдалённый остров, кишащем зомби...

Перевод: Любительский (многоголосый, закадровый) | Flarrow Films
Субтитры: английские (full)

Качество: WEB-DL 1080p
Формат: MKV
Видео кодек: AVC
Аудио кодек: АС3 | E-AC3
Видео: 1920x1080 (16:9), 23.976 fps, MPEG-4 AVC ~4 688 kbps avg
Аудио №1: 48.0 kHz, AC3 Dolby Digital, 3/2 (L,C,R,l,r) + LFE ch, ~640 kbps | RUS / MVO
Аудио №2: 48.0 kHz, Enhanced Audio Coding 3, 3/2 (L,C,R,l,r) + LFE ch, ~640 kbps | ENG
Формат субтитров: UTF-8 Plain Text

Дата премьеры (мир): 21 июля 2019


[+] Media Info
General
Unique ID                                : 238683990781584131783157592620465146879 (0xB390DD5079BFF9108DE929BDB8C84BFF)
Complete name                            : Scooby-Doo Return To Zombie Island 2019 1080p WEB-DL.mkv
Format                                   : Matroska
Format version                           : Version 4
File size                                : 3.33 GiB
Duration                                 : 1 h 19 min
Overall bit rate                         : 5 970 kb/s
Encoded date                             : UTC 2019-09-20 07:21:11
Writing application                      : mkvmerge v15.0.0 ('Duel with the Devil') 64-bit
Writing library                          : libebml v1.3.5 + libmatroska v1.4.5

Video
ID                                       : 1
Format                                   : AVC
Format/Info                              : Advanced Video Codec
Format profile                           : High@L4
Format settings                          : CABAC / 4 Ref Frames
Format settings, CABAC                   : Yes
Format settings, ReFrames                : 4 frames
Codec ID                                 : V_MPEG4/ISO/AVC
Duration                                 : 1 h 19 min
Bit rate mode                            : Constant
Bit rate                                 : 4 688 kb/s
Nominal bit rate                         : 10 000 kb/s
Width                                    : 1 920 pixels
Height                                   : 1 080 pixels
Display aspect ratio                     : 16:9
Frame rate mode                          : Constant
Frame rate                               : 23.976 (24000/1001) FPS
Color space                              : YUV
Chroma subsampling                       : 4:2:0
Bit depth                                : 8 bits
Scan type                                : Progressive
Bits/(Pixel*Frame)                       : 0.094
Stream size                              : 2.61 GiB (79%)
Language                                 : English
Default                                  : Yes
Forced                                   : No
Color range                              : Limited
Color primaries                          : BT.709
Transfer characteristics                 : BT.709
Matrix coefficients                      : BT.709

Audio #1
ID                                       : 2
Format                                   : AC-3
Format/Info                              : Audio Coding 3
Commercial name                          : Dolby Digital
Codec ID                                 : A_AC3
Duration                                 : 1 h 19 min
Bit rate mode                            : Constant
Bit rate                                 : 640 kb/s
Channel(s)                               : 6 channels
Channel layout                           : L R C LFE Ls Rs
Sampling rate                            : 48.0 kHz
Frame rate                               : 31.250 FPS (1536 SPF)
Bit depth                                : 16 bits
Compression mode                         : Lossy
Stream size                              : 365 MiB (11%)
Language                                 : Russian
Service kind                             : Complete Main
Default                                  : Yes
Forced                                   : No

Audio #2
ID                                       : 3
Format                                   : E-AC-3
Format/Info                              : Enhanced AC-3
Commercial name                          : Dolby Digital Plus
Codec ID                                 : A_EAC3
Duration                                 : 1 h 19 min
Bit rate mode                            : Constant
Bit rate                                 : 640 kb/s
Channel(s)                               : 6 channels
Channel layout                           : L R C LFE Ls Rs
Sampling rate                            : 48.0 kHz
Frame rate                               : 31.250 FPS (1536 SPF)
Compression mode                         : Lossy
Stream size                              : 365 MiB (11%)
Language                                 : English
Service kind                             : Complete Main
Default                                  : No
Forced                                   : No

Text
ID                                       : 4
Format                                   : UTF-8
Codec ID                                 : S_TEXT/UTF8
Codec ID/Info                            : UTF-8 Plain Text
Duration                                 : 1 h 18 min
Bit rate                                 : 76 b/s
Count of elements                        : 1507
Stream size                              : 44.1 KiB (0%)
Language                                 : English
Default                                  : No
Forced                                   : No



Скриншоты:
[+] Всего файлов в раздаче - 1:
Scooby-Doo Return To Zombie Island 2019 1080p WEB-DL.mkv3.33 GB

Отзывы
Зарегистрируйтесь чтобы добавить комментарий.
Обратная связь
Copyleft ©