↑↓Torrent.by
Поиск
Логин: Регистрация
Пароль: Восстановить пароль

Солнцестояние / Midsommar (2019) BDRip 1080p | Sub

Скачать solncestoyanie-midsommar-2019-bdrip-1080p-sub.torrent
U Магнитная ссылка Размер: 10.93 GB Раздают: 189 Качают: 136 Добавлен: 2019-09-28 12:01:26
Солнцестояние / Midsommar (2019) BDRip 1080p | Sub

Название: Солнцестояние
Оригинальное название: Midsommar
Год выхода: 2019
Жанр: Ужасы, триллер, драма
Режиссер: Ари Астер
В ролях: Флоренс Пью, Джек Рейнор, Вильхельм Бломгрен, Уильям Джексон Харпер, Уилл Поултер, Эллора Торчия, Арчи Мадекве, Хенрик Норлен, Гуннель Фред, Изабель Грилл, Агнес Вестерлунд Разе, Юлия Рагнарссон, Ларс Ворингер, Анна Острём, Хампус Халльберг, Лив Мяёнес, Луиз Петерхофф, Кати Домби, Матс Бломгрен, Михай Касаш, Остин Р. Грант, Габриелла Фон

О фильме:
День летнего солнцестояния - древний праздник, который во всех культурах окутан мистическим ореолом. В отрезанном от цивилизованного мира шведском поселении раз в 90 лет в этот день проводится уникальный обряд. Именно туда отправляется группа молодых американских антропологов. Однако вскоре после прибытия там начинает происходить нечто необъяснимое, и под светом солнца исследователям открывается настоящая тьма.

Страна: США, Швеция, Венгрия
Студия: Proton Cinema, B-Reel Films, Square Peg
Продолжительность: 02:27:05
Перевод: СУБТИТРЫ, отдельно Скачать
Без Рекламы!
Файл
Кодек: x.264
Качество: BDRip 1080p | Midsommar.2019.1080p.BluRay.x264-GECKOS
Видео: MPEG-4 AVC, 9131 Kбит/с, 1920x960, 23.976 кадр/с
Звук: Аудио #1: Английский (DTS, 6 ch, 1509 Кбит/с, 48.0 KHz)
Субтитры: Русские (Переведено студией FOCS), английские
Трейлер




[+] MediaInfo
Источник: Midsommar.2019.1080p.BluRay.x264-GECKOS
General
Unique ID                      : 230131679757841005309035679421944940020 (0xAD21BFD36BBC1F51BC9BA182DCA5C5F4)
Complete name                  : Midsommar.2019.BDRip.1080p.Sub.Rus.mkv
Format                         : Matroska
Format version                 : Version 4
File size                      : 10.9 GiB
Duration                       : 2 h 27 min
Overall bit rate               : 10.6 Mb/s
Encoded date                   : UTC 2019-09-27 21:39:35
Writing application            : mkvmerge v7.1.0 ('Good Love') 64bit built on Jul 27 2014 13:06:55
Writing library                : libebml v1.3.0 + libmatroska v1.4.1

Video
ID                             : 1
Format                         : AVC
Format/Info                    : Advanced Video Codec
Format profile                 : High@L4.1
Format settings                : CABAC / 4 Ref Frames
Format settings, CABAC         : Yes
Format settings, Reference fra : 4 frames
Codec ID                       : V_MPEG4/ISO/AVC
Duration                       : 2 h 27 min
Bit rate                       : 9 131 kb/s
Width                          : 1 920 pixels
Height                         : 960 pixels
Display aspect ratio           : 2.000
Frame rate mode                : Constant
Frame rate                     : 23.976 (24000/1001) FPS
Color space                    : YUV
Chroma subsampling             : 4:2:0
Bit depth                      : 8 bits
Scan type                      : Progressive
Bits/(Pixel*Frame)             : 0.207
Stream size                    : 9.38 GiB (86%)
Writing library                : x264 core 158 r2984 3759fcb
Encoding settings              : cabac=1 / ref=4 / deblock=1:-3:-3 / analyse=0x3:0x133 / me=umh / subme=8 / psy=1 / psy_rd=1.00:0.00 / mixed_ref=1 / me_range=16 / chroma_me=1 / trellis=1 / 8x8dct=1 / cqm=0 / deadzone=21,11 / fast_pskip=0 / chroma_qp_offset=-2 / threads=30 / lookahead_threads=5 / sliced_threads=0 / nr=0 / decimate=1 / interlaced=0 / bluray_compat=0 / constrained_intra=0 / bframes=3 / b_pyramid=2 / b_adapt=1 / b_bias=0 / direct=3 / weightb=1 / open_gop=0 / weightp=2 / keyint=250 / keyint_min=23 / scenecut=40 / intra_refresh=0 / rc_lookahead=50 / rc=2pass / mbtree=1 / bitrate=9131 / ratetol=1.0 / qcomp=0.60 / qpmin=0 / qpmax=69 / qpstep=4 / cplxblur=20.0 / qblur=0.5 / vbv_maxrate=62500 / vbv_bufsize=78125 / nal_hrd=none / filler=0 / ip_ratio=1.40 / aq=1:1.00
Language                       : English
Default                        : Yes
Forced                         : No

Audio
ID                             : 2
Format                         : DTS
Format/Info                    : Digital Theater Systems
Codec ID                       : A_DTS
Duration                       : 2 h 27 min
Bit rate mode                  : Constant
Bit rate                       : 1 509 kb/s
Channel(s)                     : 6 channels
Channel layout                 : C L R Ls Rs LFE
Sampling rate                  : 48.0 kHz
Frame rate                     : 93.750 FPS (512 SPF)
Bit depth                      : 24 bits
Compression mode               : Lossy
Stream size                    : 1.55 GiB (14%)
Language                       : English
Default                        : Yes
Forced                         : No

Text #1
ID                             : 3
Format                         : UTF-8
Codec ID                       : S_TEXT/UTF8
Codec ID/Info                  : UTF-8 Plain Text
Duration                       : 2 h 20 min
Bit rate                       : 59 b/s
Count of elements              : 1342
Stream size                    : 61.0 KiB (0%)
Title                          : FOCS
Language                       : Russian
Default                        : Yes
Forced                         : No

Text #2
ID                             : 4
Format                         : UTF-8
Codec ID                       : S_TEXT/UTF8
Codec ID/Info                  : UTF-8 Plain Text
Duration                       : 2 h 11 min
Bit rate                       : 40 b/s
Count of elements              : 1136
Stream size                    : 38.9 KiB (0%)
Language                       : English
Default                        : No
Forced                         : No

Menu
00:00:00.000                   : en:00:00:00.000
00:12:34.712                   : en:00:12:34.712
00:18:06.877                   : en:00:18:06.877
00:25:15.222                   : en:00:25:15.222
00:33:35.722                   : en:00:33:35.722
00:40:56.954                   : en:00:40:56.954
00:49:23.669                   : en:00:49:23.669
00:57:14.765                   : en:00:57:14.765
01:05:52.740                   : en:01:05:52.740
01:12:59.083                   : en:01:12:59.083
01:20:37.040                   : en:01:20:37.040
01:33:58.591                   : en:01:33:58.591
01:41:34.171                   : en:01:41:34.171
01:53:50.365                   : en:01:53:50.365
02:02:22.960                   : en:02:02:22.960
02:14:07.039                   : en:02:14:07.039



Скриншоты:
[+] Всего файлов в раздаче - 1:
Midsommar.2019.BDRip.1080p.Sub.Rus.mkv10.93 GB

Похожие раздачи по запросу - солнцестояние:
2019-09-30 U Солнцестояние / Midsommar (2019) BDRip от MegaPeer | Sub 1.46 GB ↑ 94 ↓ 50

Отзывы
Зарегистрируйтесь чтобы добавить комментарий.
Обратная связь
Copyleft ©