↑↓torrent.by
Поиск
Логин: Регистрация
Пароль: Восстановить пароль

Любовь и секс / Love & Sex (2000) WEB-DLRip-AVC | P

Скачать lyubov-i-seks-love-sex-2000-web-dlrip-avc-p.torrent
U Магнитная ссылка Размер: 1.66 GB Раздают: 27 Качают: 5 Добавлен: 2021-09-15 06:06:21
Любовь и секс / Love & Sex (2000) WEB-DLRip-AVC | P

Название: Любовь и секс
Оригинальное название: Love & Sex
Год выхода: 2000
Жанр:  Драма, мелодрама, комедия
Режиссер: Валери Брейман

В ролях: Фамке Янссен, Джон Фавро, Ноа Эммерих, Энн Магнусон, Шери Отери, Джош Хопкинс, Роберт Неппер, Винсент Вентреска, Кристен Дзан, Дэвид Стейнберг

О фильме:
Можно сказать, что поиск своего мужчины Кейт начала еще в детстве. С годами количество избранников достигло пугающей цифры, но дальше секса дело не шло: мужчины настойчиво поражали сюрпризами. Так и металась Кейт по «полям любви», которые больше напоминали минные.

Страна: США, Канада
Студия: Behaviour Worldwide, MDP Worldwide
Продолжительность: 01:22:38
Перевод: Профессиональный многоголосый
Субтитры: Русские (Full), английские

Файл                                      
Формат: Matroska
Качество: WEB-DLRip-AVC | AMZN
Видео: 1024x576 at 23.976 fps, x264@L4.1, ~2500 kbps, 0.177 bpp
Аудио: AC3, 6 ch, ~384 kbps - | Русский | -
Формат субтитров: softsub (SRT)

***Релиз от: -=DoMiNo=-


[+] M/I
x264 [info]: frame I:893   Avg QP:16.96  size: 61658
x264 [info]: frame P:23560 Avg QP:18.70  size: 26438
x264 [info]: frame B:94418 Avg QP:20.67  size:  9212
x264 [info]: consecutive B-frames:  1.3%  1.4%  4.7% 20.9% 16.5% 38.1%  6.9%  5.1%  1.9%  0.8%  0.6%  0.3%  0.0%

General
Unique ID                   : 108164573981336375532906193811246303376 (0x515FBD3BE6731A404AE3006AE92E4890)
Complete name               : E:Любовь и секс.(2000).AMZN.WEB-DLRip-AVC.[-=DoMiNo=-].mkv
Format                      : Matroska
Format version              : Version 4
File size                   : 1.66 GiB
Duration                    : 1 h 22 min
Overall bit rate            : 2 884 kb/s
Encoded date                : UTC 2021-09-14 14:06:43
Writing application         : mkvmerge v61.0.0 ('So') 64-bit
Writing library             : libebml v1.4.2 + libmatroska v1.6.4
Cover                       : Yes
Attachments                 : Cover.jpg / Cover 2.jpg

Video
ID                          : 1
Format                      : AVC
Format/Info                 : Advanced Video Codec
Format profile              : High@L4.1
Format settings             : CABAC / 14 Ref Frames
Format settings, CABAC      : Yes
Format settings, Reference  : 14 frames
Codec ID                    : V_MPEG4/ISO/AVC
Duration                    : 1 h 22 min
Bit rate                    : 2 500 kb/s
Width                       : 1 024 pixels
Height                      : 576 pixels
Display aspect ratio        : 16:9
Frame rate mode             : Constant
Frame rate                  : 23.976 (24000/1001) FPS
Color space                 : YUV
Chroma subsampling          : 4:2:0
Bit depth                   : 8 bits
Scan type                   : Progressive
Bits/(Pixel*Frame)          : 0.177
Stream size                 : 1.44 GiB (87%)
Title                       : -=DoMiNo=-
Writing library             : x264 core 164 r3065+55M 280faca t_mod_New [(8 & 10)-bit@all X86_64]
Encoding settings           : cabac=1 / ref=14 / deblock=1:-3:-2 / analyse=0x3:0x133 / me=umh / subme=10 / psy=1 / fade_compensate=0.00 / psy_rd=1.00:0.00 / mixed_ref=1 / me_range=32 / chroma_me=1 / trellis=2 / 8x8dct=1 / cqm=0 / deadzone=21,11 / fast_pskip=0 / chroma_qp_offset=-2 / threads=24 / lookahead_threads=4 / sliced_threads=0 / nr=0 / decimate=0 / interlaced=0 / bluray_compat=0 / constrained_intra=0 / fgo=0 / bframes=12 / b_pyramid=2 / b_adapt=2 / b_bias=0 / direct=3 / weightb=1 / open_gop=0 / weightp=2 / keyint=240 / keyint_min=23 / scenecut=40 / intra_refresh=0 / rc_lookahead=60 / rc=2pass / mbtree=0 / bitrate=2500 / ratetol=1.0 / qcomp=0.70 / qpmin=0:0:0 / qpmax=69:69:69 / qpstep=4 / cplxblur=20.0 / qblur=0.5 / vbv_maxrate=50000 / vbv_bufsize=62500 / nal_hrd=none / filler=0 / ip_ratio=1.24 / pb_ratio=1.30 / aq=2:1.00 / aq-sensitivity=10.00 / aq-factor=1.00:1.00:1.00 / aq2=0 / aq3=0
Language                    : English
Default                     : Yes
Forced                      : No

Audio
ID                          : 2
Format                      : AC-3
Format/Info                 : Audio Coding 3
Commercial name             : Dolby Digital
Codec ID                    : A_AC3
Duration                    : 1 h 22 min
Bit rate mode               : Constant
Bit rate                    : 384 kb/s
Channel(s)                  : 6 channels
Channel layout              : L R C LFE Ls Rs
Sampling rate               : 48.0 kHz
Frame rate                  : 31.250 FPS (1536 SPF)
Compression mode            : Lossy
Stream size                 : 227 MiB (13%)
Title                       : MVO
Language                    : Russian
Service kind                : Complete Main
Default                     : Yes
Forced                      : No

Text #1
ID                          : 3
Format                      : UTF-8
Codec ID                    : S_TEXT/UTF8
Codec ID/Info               : UTF-8 Plain Text
Duration                    : 1 h 16 min
Bit rate                    : 110 b/s
Count of elements           : 839
Stream size                 : 61.5 KiB (0%)
Language                    : Russian
Default                     : No
Forced                      : No

Text #2
ID                          : 4
Format                      : UTF-8
Codec ID                    : S_TEXT/UTF8
Codec ID/Info               : UTF-8 Plain Text
Duration                    : 1 h 21 min
Bit rate                    : 88 b/s
Count of elements           : 1340
Stream size                 : 53.3 KiB (0%)
Title                       : SDH
Language                    : English
Default                     : No
Forced                      : No



Скриншоты:
[+] Всего файлов в раздаче - 1:
Любовь и секс.(2000).AMZN.WEB-DLRip-AVC.[-=DoMiNo=-].mkv1.66 GB

Показать еще раздачи по запросу любовь:
2021-09-11 U Любовь на асфальте / Hard Car - Desiderio sfrenato del piacere (1989) DVDRip | A 1.37 GB ↑ 90 ↓ 35
2021-09-03 U Любовь по ту сторону / Faraway Eyes (2020) WEB-DLRip-AVC | iTunes 1.45 GB ↑ 60 ↓ 32
2021-09-03 U Любовь по ту сторону / Faraway Eyes (2020) WEB-DLRip-AVC от MediaBit | iTunes 2.35 GB ↑ 35 ↓ 16
2021-09-03 U Любовь по ту сторону / Faraway Eyes (2020) WEB-DLRip от ELEKTRI4KA | iTunes 1.46 GB ↑ 80 ↓ 28
2021-09-03 U Любовь по ту сторону / Faraway Eyes (2020) WEB-DL 1080p от ELEKTRI4KA | iTunes 4.52 GB ↑ 47 ↓ 34
2021-08-31 U Страсть, любовь и стволы / Die in a Gunfight (2021) HDRip от Portablius | iTunes 745.19 MB ↑ 21 ↓ 8
2021-08-30 U Страсть, любовь и стволы / Die in a Gunfight (2021) HDRip-AVC | iTunes 1.76 GB ↑ 78 ↓ 42

Отзывы
Зарегистрируйтесь чтобы добавить комментарий.
Загрузите программу
  byTorrent
Обратная связь
Copyleft ©