↑↓Torrent.by
Поиск
Логин: Регистрация
Пароль: Восстановить пароль

Битва экстрасенсов [20х01] (2019) HDTV 1080p от Generalfilm

Скачать bitva-ekstrasensov-20h01-2019-hdtv-1080p-ot-generalfilm.torrent
U Магнитная ссылка Размер: 3.53 GB Раздают: 113 Качают: 34 Добавлен: 2019-09-29 12:29:33
Битва экстрасенсов [20х01] (2019) HDTV 1080p от Generalfilm

Год выпуска: 2019
Страна: Россия
Жанр: Реалити-шоу
Перевод: Не требуется
Продолжительность: ~01:09:55
Режиссер: Фёдор Торстенсен , Ольга Шмид , Олег Чаурс

Ведущий:

Описание:
Паранормальное шоу канала ТНТ об экстрасенсах, магах, ясновидящих, гадалках и колдунах. «Битва экстрасенсов 18 сезон» – продолжение рейтингового российского шоу «Битва экстрасенсов», которое выходит с 2007 года на канале ТНТ. Создатели проекта в 18-м сезоне вновь подготовили для телезрителей встречи с удивительными людьми, обладающими уникальными способностями.

Качество: HDTV 1080p Запись с
Формат: MKV
Видео: AVC, 1920x1080 (16:9), 7050 kbps, 25 fps, 0,136 bpp
Аудио: AC3 / 2.0 / 48 kHz / 192 kbps /

Релиз:


[+] ОтчетМедиаИнфо

General
Unique ID                   : 186902740241472396273520075901367603977 (0x8C9C288DAECC8D69A89DF164FE65D309)
Complete name               : E:Запись с твBitva ekstrasensov S20 2019.HDTV 1080p.RG GeneralFilmBitva ekstrasensov.s20.e01.2019.HDTV 1080p.by.White Smoke.R.G.Generalfilm.mkv
Format                      : Matroska
Format version              : Version 4 / Version 2
File size                   : 3.53 GiB
Duration                    : 1 h 9 min
Overall bit rate mode       : Constant
Overall bit rate            : 7 231 kb/s
Movie name                  : Bitva ekstrasensov.s20.e01.2019.HDTV 1080p.by.White Smoke.R.G.Generalfilm.mkv
Encoded date                : UTC 2019-09-29 01:24:41
Writing application         : mkvmerge v6.8.0 ('Theme for Great Cities') 64bit built on Mar  2 2014 21:34:26
Writing library             : libebml v1.3.0 + libmatroska v1.4.1
Cover                       : Yes
Attachments                 : cover.jpg

Video
ID                          : 1
Format                      : AVC
Format/Info                 : Advanced Video Codec
Format profile              : High@L4.1
Format settings             : CABAC / 3 Ref Frames
Format settings, CABAC      : Yes
Format settings, ReFrames   : 3 frames
Codec ID                    : V_MPEG4/ISO/AVC
Duration                    : 1 h 9 min
Bit rate mode               : Constant
Bit rate                    : 7 051 kb/s
Width                       : 1 920 pixels
Height                      : 1 080 pixels
Display aspect ratio        : 16:9
Frame rate mode             : Constant
Frame rate                  : 25.000 FPS
Standard                    : PAL
Color space                 : YUV
Chroma subsampling          : 4:2:0
Bit depth                   : 8 bits
Scan type                   : Progressive
Bits/(Pixel*Frame)          : 0.136
Stream size                 : 3.37 GiB (95%)
Default                     : Yes
Forced                      : No
Color range                 : Limited
Color primaries             : BT.709
Transfer characteristics    : BT.709
Matrix coefficients         : BT.709

Audio
ID                          : 2
Format                      : AC-3
Format/Info                 : Audio Coding 3
Commercial name             : Dolby Digital
Codec ID                    : A_AC3
Duration                    : 1 h 9 min
Bit rate mode               : Constant
Bit rate                    : 192 kb/s
Channel(s)                  : 2 channels
Channel layout              : L R
Sampling rate               : 48.0 kHz
Frame rate                  : 31.250 FPS (1536 SPF)
Bit depth                   : 16 bits
Compression mode            : Lossy
Stream size                 : 96.0 MiB (3%)
Service kind                : Complete Main
Default                     : Yes
Forced                      : No



Скриншоты:
[+] Всего файлов в раздаче - 1:
Bitva ekstrasensov.s20.e01.2019.HDTV 1080p.by.White Smoke.R.G.Generalfilm.mkv3.53 GB

Показать еще раздачи по запросу битва:
2019-11-17 U BBC: Битва экзопланет / Battle Of The Exoplanets (2018) HDTVRip 720p | P2 1.52 GB ↑ 53 ↓ 14
2019-11-17 U Битва экстрасенсов [20х01-08] (2019) SATRip 7.37 GB ↑ 71 ↓ 511
2019-11-04 U Битва экстрасенсов [20х01-06] (2019) WEBRip 720p от Files-x 9.07 GB ↑ 27 ↓ 73
2019-11-03 U Битва экстрасенсов [20х01-06] (2019) SATRip 5.51 GB ↑ 98 ↓ 557
2019-10-28 U Битва экстрасенсов [20х01-05] (2019) WEBRip от Files-x 4.61 GB ↑ 27 ↓ 139
2019-10-28 U Битва экстрасенсов [20х01-05] (2019) WEBRip 720p от Files-x 7.55 GB ↑ 27 ↓ 115
2019-10-21 U Битва экстрасенсов [20х01-04] (2019) WEBRip 720p от Files-x 6.17 GB ↑ 51 ↓ 141

Отзывы
Зарегистрируйтесь чтобы добавить комментарий.
Обратная связь
Copyleft ©