↑↓Torrent.by
Поиск
Логин: Регистрация
Пароль: Восстановить пароль
Загрузка...

Вечерний квартал [119] (2019) WEBRip от GeneralFilm

Скачать vecherniy-kvartal-119-2019-webrip-ot-generalfilm.torrent
U Магнитная ссылка Размер: 1.09 GB Раздают: 47 Качают: 70 Добавлен: 2019-09-29 12:29:36
Вечерний квартал [119] (2019) WEBRip от GeneralFilm

Оригинальное название: Вечерний квартал
Год выпуска: 2019
Жанр:  Юмористическое шоу, концерт, сатира
Выпущено: Украина, Студия 95 квартал
Режиссер: Студия 95 квартал
В ролях: Юрий Великий, Юрий Крапов, Елена Кравец, Евгений Кошевой, Сергей Казанин, Александр Пикалов, Юрий Корявченков, Аркадий Лапухин

О фильме:
Однажды веселые ребята из "95-го квартала" решили отметить свой переезд из родного Кривого Рога в Киев, а заодно 10-летие команды новым шоу. Коллектив подобрался душевный, "с огоньком", гости - сплошь знаменитые, а столичная публика - щедрая на аплодисменты. Так родилась самая смешная и популярная передача на отечественном телевидении - "Вечерний квартал". Идея шоу проста: в городе N есть некий модный квартал, в котором тусуются девять смешных жителей. Остальные просто приходят к ним в гости. Правда, гости не совсем обычные: среди них встречаются и богатые, и знаменитые, политики, и дизайнеры, и поп-звезды. Главный критерий - наличие здорового чувства юмора. Без него - никак, так как гостей здесь встречают не хлебом-солью, а розыгрышами и подколками, а те в свою очередь участвуют в скетчах и исполняют музыкальные или танцевальные номера.

Качество: WEBRip
Видео: XviD build 73, 720x400 (16:9), 25.000 fps, 1590 Kbps (0.221 bit/pixel)
Аудио: 48.0 kHz, AC3, 2/0 ch, 192 kbps
Продолжительность: 01:24:32
Перевод: Не требуется
Cубтитры: нет

Релиз:
[+] Содержание
Зелёный ШУХЕР в Украине
Чиновник, который прислушался к совету Зеленского
После свадьбы с Каменских Потап согласен даже на такое
Розыгрыш Юрия Ткача с беременными девушками
Стихотворная клофелинщица - Валерий Жидков
Нет 200 гривен? Лошье! Одесские чайки разводят туристов
Луценко Перепей Всех и Ляшко Игнорируй Баб - Украинские политики во времена казаков
Еврейская мама привела сына в бордель
Плач чиновников после визита Зеленского
Выйди отсюда, СМЕХУН! Зеленский смотрит Новый Вечерний Квартал
Пора возвращаться домой - финальная песня



[+] MediaInfo
General
Complete name               : D:RazdachiVechernij.Kvartal.118.WEBRip.GeneralFilm.avi
Format                      : AVI
Format/Info                 : Audio Video Interleave
File size                   : 1.09 GiB
Duration                    : 1 h 26 min
Overall bit rate            : 1 792 kb/s
Writing application         : VirtualDubMod 1.5.10.3 | www.virtualdub-fr.org || (build 2550/release)
Writing library             : VirtualDubMod build 2550/release

Video
ID                          : 0
Format                      : MPEG-4 Visual
Format profile              : Advanced Simple@L5
Format settings             : BVOP1 / Custom Matrix
Format settings, BVOP       : 1
Format settings, QPel       : No
Format settings, GMC        : No warppoints
Format settings, Matrix     : Custom
Codec ID                    : XVID
Codec ID/Hint               : XviD
Duration                    : 1 h 26 min
Bit rate                    : 1 590 kb/s
Width                       : 720 pixels
Height                      : 400 pixels
Display aspect ratio        : 16:9
Frame rate                  : 25.000 FPS
Color space                 : YUV
Chroma subsampling          : 4:2:0
Bit depth                   : 8 bits
Scan type                   : Progressive
Compression mode            : Lossy
Bits/(Pixel*Frame)          : 0.221
Stream size                 : 989 MiB (89%)
Writing library             : XviD 73

Audio
ID                          : 1
Format                      : AC-3
Format/Info                 : Audio Coding 3
Commercial name             : Dolby Digital
Codec ID                    : 2000
Duration                    : 1 h 26 min
Bit rate mode               : Constant
Bit rate                    : 192 kb/s
Channel(s)                  : 2 channels
Channel layout              : L R
Sampling rate               : 48.0 kHz
Frame rate                  : 31.250 FPS (1536 SPF)
Bit depth                   : 16 bits
Compression mode            : Lossy
Stream size                 : 119 MiB (11%)
Alignment                   : Split accross interleaves
Interleave, duration        : 40  ms (1.00 video frame)
Interleave, preload duratio : 500  ms
Service kind                : Complete Main



Скриншоты:
[+] Всего файлов в раздаче - 1:
Vechernij.Kvartal.119.WEBRip.GeneralFilm.avi1.09 GB

Показать еще раздачи по запросу вечерний:
2019-09-22 U Вечерний квартал [118] (2019) WEBRip от GeneralFilm 1.09 GB ↑ 130 ↓ 79
2019-08-25 U Вечерний квартал [117] (2019) WEBRip от GeneralFilm 1.09 GB ↑ 403 ↓ 73
2019-05-26 U Вечерний квартал [116] (2019) WEBRip от GeneralFilm 1К1.37 GB ↑ 203 ↓ 77
2019-03-24 U Вечерний квартал [115] (2019) WEBRip от GeneralFilm 1.37 GB ↑ 166 ↓ 89
2018-11-04 U Вечерний квартал [112] (2018) WEBRip от GeneralFilm 1.09 GB ↑ 42 ↓ 44
2018-10-29 U Вечерний квартал [111] (2018) WEBRip от GeneralFilm 1.09 GB ↑ 176 ↓ 65
2017-11-12 U Вечерний квартал [105] (2017) WEBRip 1080p 2.45 GB ↑ 74 ↓ 25

Отзывы
Зарегистрируйтесь чтобы добавить комментарий.
Обратная связь
Copyleft ©