↑↓torrent.by
Поиск
Логин: Регистрация
Пароль: Восстановить пароль

Клаустрофобы 2: Лига выживших / Escape Room: Tournament of Champions (2021) WEB-DLRip-AVC | Pazl Voice | Extended Cut

Скачать klaustrofoby-2-liga-vyzhivshih-escape-room-tournament-of-champions-2021-web-dlrip-avc-pazl-voice-extended-cut.torrent
U Магнитная ссылка Размер: 743.99 MB Раздают: 21 Качают: 3 Добавлен: 2021-09-15 06:06:25
Клаустрофобы 2: Лига выживших / Escape Room: Tournament of Champions (2021) WEB-DLRip-AVC | Pazl Voice | Extended Cut

Название: Клаустрофобы 2: Лига выживших
Оригинальное название: Escape Room: Tournament of Champions
Год выпуска: 2021
Жанр:  Ужасы, боевик
Режиссер: Адам Робител

В ролях: Тейлор Расселл, Логан Миллер, Томас Кокерел, Холлэнд Роден, Индия Мур, Карлито Оливеро, Джей Ирвинг, Джеймс Батлер, Джеймс Фрейн

О фильме:
Шестеро незнакомцев, каждый из которых стал единственным победителем одного из смертельно опасных квестов, вновь оказываются в игре не по своей воле. Но прежние задания покажутся им сущим пустяком по сравнению с жуткими испытаниями, которые ожидают их на этот раз: игра стала еще опаснее и безжалостнее, а шансы на выживание стремятся к нулю

Выпущено: США, Columbia Pictures, Original Film, Shaken Not Stirred
Продолжительность: 01:35:44
Перевод: Любительский двухголосый (Pazl Voice)
Субтитры: Нет

Файл
Формат: Matroska
Качество: WEB-DLRip-AVC
Видео: 720x300 at 23.976 fps, x264@L4.1, ~991 kbps, 0.191 bpp
Аудио: AAC, 2 ch, ~96 kbps - | Русский | -
Формат субтитров: softsub (SRT)

***Релиз от: -=DoMiNo=-


[+] M/I
x264 [info]: frame I:1574  Avg QP:14.16  size: 35582
x264 [info]: frame P:33384 Avg QP:17.57  size: 10446
x264 [info]: frame B:102760 Avg QP:19.50  size:  2978
x264 [info]: consecutive B-frames:  3.8%  3.9%  8.1% 35.5% 13.1% 23.5%  4.2%  5.3%  0.7%  0.6%  0.2%  0.7%  0.2%  0.1%  0.2%

General
Unique ID                   : 201246324673144709642723443136122024913 (0x9766A1DDAA3953F112C184ABD9A773D1)
Complete name               : B:Клаустрофобы-2.Лига выживших.(2021).WEB-DLRip-AVC.[-=DoMiNo=-].mkv
Format                      : Matroska
Format version              : Version 4
File size                   : 744 MiB
Duration                    : 1 h 35 min
Overall bit rate            : 1 086 kb/s
Encoded date                : UTC 2021-09-14 08:14:53
Writing application         : mkvmerge v61.0.0 ('So') 64-bit
Writing library             : libebml v1.4.2 + libmatroska v1.6.4
Cover                       : Yes
Attachments                 : Cover.jpg / Cover 2.jpg

Video
ID                          : 1
Format                      : AVC
Format/Info                 : Advanced Video Codec
Format profile              : High@L4.1
Format settings             : CABAC / 14 Ref Frames
Format settings, CABAC      : Yes
Format settings, Reference  : 14 frames
Codec ID                    : V_MPEG4/ISO/AVC
Duration                    : 1 h 35 min
Bit rate                    : 991 kb/s
Width                       : 720 pixels
Height                      : 300 pixels
Display aspect ratio        : 2.40:1
Frame rate mode             : Constant
Frame rate                  : 23.976 (24000/1001) FPS
Color space                 : YUV
Chroma subsampling          : 4:2:0
Bit depth                   : 8 bits
Scan type                   : Progressive
Bits/(Pixel*Frame)          : 0.191
Stream size                 : 678 MiB (91%)
Title                       : -=DoMiNo=-
Writing library             : x264 core 164 r3065+55M 280faca t_mod_New [(8 & 10)-bit@all X86_64]
Encoding settings           : cabac=1 / ref=14 / deblock=1:-3:-2 / analyse=0x3:0x133 / me=umh / subme=10 / psy=1 / fade_compensate=0.00 / psy_rd=1.00:0.00 / mixed_ref=1 / me_range=32 / chroma_me=1 / trellis=2 / 8x8dct=1 / cqm=0 / deadzone=21,11 / fast_pskip=0 / chroma_qp_offset=-2 / threads=24 / lookahead_threads=2 / sliced_threads=0 / nr=0 / decimate=0 / interlaced=0 / bluray_compat=0 / constrained_intra=0 / fgo=0 / bframes=14 / b_pyramid=2 / b_adapt=2 / b_bias=0 / direct=3 / weightb=1 / open_gop=0 / weightp=2 / keyint=240 / keyint_min=23 / scenecut=40 / intra_refresh=0 / rc_lookahead=60 / rc=2pass / mbtree=0 / bitrate=991 / ratetol=1.0 / qcomp=0.60 / qpmin=0:0:0 / qpmax=69:69:69 / qpstep=4 / cplxblur=20.0 / qblur=0.5 / vbv_maxrate=50000 / vbv_bufsize=62500 / nal_hrd=none / filler=0 / ip_ratio=1.40 / pb_ratio=1.30 / aq=2:0.90 / aq-sensitivity=10.00 / aq-factor=1.00:1.00:1.00 / aq2=0 / aq3=0
Language                    : English
Default                     : Yes
Forced                      : No

Audio
ID                          : 2
Format                      : AAC LC SBR
Format/Info                 : Advanced Audio Codec Low Complexity with Spectral Band Replication
Commercial name             : HE-AAC
Format settings             : Explicit
Codec ID                    : A_AAC-2
Duration                    : 1 h 35 min
Bit rate                    : 96.0 kb/s
Channel(s)                  : 2 channels
Channel layout              : L R
Sampling rate               : 48.0 kHz
Frame rate                  : 23.438 FPS (2048 SPF)
Compression mode            : Lossy
Stream size                 : 64.8 MiB (9%)
Title                       : DVO_[PV]
Language                    : Russian
Default                     : Yes
Forced                      : No



Скриншоты:
[+] Всего файлов в раздаче - 1:
Клаустрофобы-2.Лига выживших.(2021).WEB-DLRip-AVC.[-=DoMiNo=-].mkv743.99 MB

Похожие раздачи по запросу - клаустрофобы:
2021-09-13 U Клаустрофобы 2: Лига выживших / Escape Room: Tournament of Champions (2021) WEB-DL-HEVC 2160p | 4K | HDR | Pazl Voice | Extended Cut 9.89 GB ↑ 35 ↓ 15
2021-09-12 U Клаустрофобы 2: Лига выживших / Escape Room: Tournament of Champions (2021) WEB-DLRip-AVC от MediaBit | Pazl Voice | Extended Cut 2.22 GB ↑ 104 ↓ 37
2021-09-11 U Клаустрофобы 2: Лига выживших / Escape Room: Tournament of Champions (2021) WEB-DLRip | Pazl Voice 1.47 GB ↑ 174 ↓ 53
2021-09-11 U Клаустрофобы 2: Лига выживших / Escape Room: Tournament of Champions (2021) WEB-DLRip 720p | Pazl Voice | Extended Cut 2.18 GB ↑ 150 ↓ 58
2021-09-10 U Клаустрофобы 2: Лига выживших / Escape Room: Tournament of Champions (2021) WEB-DLRip-AVC | Pazl Voice | Extended Cut 1.76 GB ↑ 224 ↓ 74
2021-09-10 U Клаустрофобы 2: Лига выживших / Escape Room: Tournament of Champions (2021) WEB-DL 1080p | Pazl Voice | Extended Cut 4.95 GB ↑ 190 ↓ 238

Отзывы
Зарегистрируйтесь чтобы добавить комментарий.
Загрузите программу
  byTorrent
Обратная связь
Copyleft ©