↑↓torrent.by
Поиск
Логин: Регистрация
Пароль: Восстановить пароль

Мой год в Нью-Йорке / My Salinger Year (2020) HDRip-AVC | iTunes

Скачать moy-god-v-nyu-yorke-my-salinger-year-2020-hdrip-avc-itunes.torrent
U Магнитная ссылка Размер: 2.34 GB Раздают: 27 Качают: 23 Добавлен: 2021-09-15 06:06:44
Мой год в Нью-Йорке / My Salinger Year (2020) HDRip-AVC | iTunes

Название: Мой год в Нью-Йорке
Оригинальное название: My Salinger Year
Год выхода: 2020
Жанр:  Мелодрама, комедия
Режиссер: Филипп Фалардо
В ролях: Маргарет Куэлли, Сигурни Уивер, Дуглас Бут, Шана Керслэйк, Джонатан Дубски, Колм Фиор, Лени Паркер, Яник Трусдейл, Сяо Сунь, Гэвин Дреа

О фильме:
Джоанн устраивается ассистенткой в литературное агентство, оказываясь в самом сердце богемного Нью-Йорка 1990-х. Девушка разрывается между карьерой, мужчинами и своей настоящей мечтой — стать писательницей. Неожиданно разобраться во всем этом ей помогает голос в телефонной трубке, принадлежащий самому известному писателю-отшельнику, великому Дж. Д. Сэлинджеру. Подобно мудрому профессору он готовит Джоанн к ее финальному экзамену во взрослую жизнь.

Страна: Канада, Ирландия
Студия: micro_scope media, Parallel Film Productions Ltd.
Продолжительность: 01:40:58
Перевод: Дублированный | iTunes
Субтитры: Английские

Файл                                      
Формат: Matroska
Качество: HDRip-AVC
Видео: 1024x554 at 24.000 fps, x264@L4.1, ~2500 kbps, 0.184 bpp
Аудио 1: AC3, 6 ch, ~384 kbps - | Русский | -
Аудио 2: AC3, 6 ch, ~448 kbps - | Английский | -
Формат субтитров: softsub (SRT)

***Релиз от: -=DoMiNo=-


[+] M/I
x264 [info]: frame I:1146  Avg QP:14.51  size: 87284
x264 [info]: frame P:27003 Avg QP:16.67  size: 32065
x264 [info]: frame B:117267 Avg QP:17.75  size:  7759
x264 [info]: consecutive B-frames:  1.4%  1.2%  4.3%  6.6%  9.1% 68.7%  3.0%  0.5%  2.2%  0.3%  0.8%  0.8%  0.3%

General
Unique ID                   : 10969596448224092193927196707876344079 (0x840AADC8B7D8574B6A5B0655DC5910F)
Complete name               : K:My.Salinger.Year.(2020).HDRip-AVC.mkv
Format                      : Matroska
Format version              : Version 4
File size                   : 2.34 GiB
Duration                    : 1 h 40 min
Overall bit rate            : 3 311 kb/s
Encoded date                : UTC 2021-09-14 18:16:11
Writing application         : mkvmerge v61.0.0 ('So') 64-bit
Writing library             : libebml v1.4.2 + libmatroska v1.6.4
Cover                       : Yes
Attachments                 : Cover.jpg / Cover 2.jpg

Video
ID                          : 1
Format                      : AVC
Format/Info                 : Advanced Video Codec
Format profile              : High@L4.1
Format settings             : CABAC / 12 Ref Frames
Format settings, CABAC      : Yes
Format settings, Reference  : 12 frames
Codec ID                    : V_MPEG4/ISO/AVC
Duration                    : 1 h 40 min
Bit rate                    : 2 500 kb/s
Width                       : 1 024 pixels
Height                      : 554 pixels
Display aspect ratio        : 1.85:1
Frame rate mode             : Constant
Frame rate                  : 24.000 FPS
Color space                 : YUV
Chroma subsampling          : 4:2:0
Bit depth                   : 8 bits
Scan type                   : Progressive
Bits/(Pixel*Frame)          : 0.184
Stream size                 : 1.75 GiB (75%)
Title                       : -=DoMiNo=-
Writing library             : x264 core 164 r3065+55M 280faca t_mod_New [(8 & 10)-bit@all X86_64]
Encoding settings           : cabac=1 / ref=12 / deblock=1:-3:-2 / analyse=0x3:0x133 / me=umh / subme=10 / psy=1 / fade_compensate=0.00 / psy_rd=1.00:0.15 / mixed_ref=1 / me_range=32 / chroma_me=1 / trellis=2 / 8x8dct=1 / cqm=0 / deadzone=21,11 / fast_pskip=0 / chroma_qp_offset=-3 / threads=24 / lookahead_threads=4 / sliced_threads=0 / nr=0 / decimate=0 / interlaced=0 / bluray_compat=0 / constrained_intra=0 / fgo=0 / bframes=12 / b_pyramid=2 / b_adapt=2 / b_bias=0 / direct=3 / weightb=1 / open_gop=0 / weightp=2 / keyint=240 / keyint_min=24 / scenecut=40 / intra_refresh=0 / rc_lookahead=60 / rc=2pass / mbtree=0 / bitrate=2500 / ratetol=1.0 / qcomp=0.65 / qpmin=0:0:0 / qpmax=69:69:69 / qpstep=4 / cplxblur=20.0 / qblur=0.5 / vbv_maxrate=50000 / vbv_bufsize=62500 / nal_hrd=none / filler=0 / ip_ratio=1.24 / pb_ratio=1.30 / aq=1:0.90 / aq-sensitivity=10.00 / aq-factor=1.00:1.00:1.00 / aq2=0 / aq3=0
Language                    : English
Default                     : Yes
Forced                      : No

Audio #1
ID                          : 2
Format                      : AC-3
Format/Info                 : Audio Coding 3
Commercial name             : Dolby Digital
Codec ID                    : A_AC3
Duration                    : 1 h 40 min
Bit rate mode               : Constant
Bit rate                    : 384 kb/s
Channel(s)                  : 6 channels
Channel layout              : L R C LFE Ls Rs
Sampling rate               : 48.0 kHz
Frame rate                  : 31.250 FPS (1536 SPF)
Compression mode            : Lossy
Stream size                 : 277 MiB (12%)
Title                       : iTunes
Language                    : Russian
Service kind                : Complete Main
Default                     : Yes
Forced                      : Yes

Audio #2
ID                          : 3
Format                      : AC-3
Format/Info                 : Audio Coding 3
Commercial name             : Dolby Digital
Codec ID                    : A_AC3
Duration                    : 1 h 40 min
Bit rate mode               : Constant
Bit rate                    : 448 kb/s
Channel(s)                  : 6 channels
Channel layout              : L R C LFE Ls Rs
Sampling rate               : 48.0 kHz
Frame rate                  : 31.250 FPS (1536 SPF)
Compression mode            : Lossy
Stream size                 : 324 MiB (14%)
Language                    : English
Service kind                : Complete Main
Default                     : No
Forced                      : No

Text #1
ID                          : 4
Format                      : UTF-8
Codec ID                    : S_TEXT/UTF8
Codec ID/Info               : UTF-8 Plain Text
Duration                    : 1 h 34 min
Bit rate                    : 66 b/s
Count of elements           : 1450
Stream size                 : 45.9 KiB (0%)
Title                       : Full
Language                    : English
Default                     : No
Forced                      : No

Text #2
ID                          : 5
Format                      : UTF-8
Codec ID                    : S_TEXT/UTF8
Codec ID/Info               : UTF-8 Plain Text
Duration                    : 1 h 35 min
Bit rate                    : 68 b/s
Count of elements           : 1529
Stream size                 : 48.3 KiB (0%)
Title                       : SDH
Language                    : English
Default                     : No
Forced                      : No

Menu
00:00:00.000                : Chapter 01
00:07:48.458                : Chapter 02
00:16:41.708                : Chapter 03
00:26:12.833                : Chapter 04
00:33:27.833                : Chapter 05
00:43:19.667                : Chapter 06
00:50:57.625                : Chapter 07
00:59:51.167                : Chapter 08
01:08:20.875                : Chapter 09
01:18:11.417                : Chapter 10
01:26:42.958                : Chapter 11
01:32:49.000                : Chapter 12



Скриншоты:
[+] Всего файлов в раздаче - 1:
My.Salinger.Year.(2020).HDRip-AVC.mkv2.34 GB

Похожие раздачи по запросу - йорке:
2021-09-15 U Мой год в Нью-Йорке / My Salinger Year (2020) BDRip 1080p от селезень | iTunes 13.82 GB ↑ 39 ↓ 6

Отзывы
Зарегистрируйтесь чтобы добавить комментарий.
Загрузите программу
  byTorrent
Обратная связь
Copyleft ©