↑↓Torrent.by
Поиск
Логин: Регистрация
Пароль: Восстановить пароль

Люди в черном: Интернэшнл / Men in Black International (2019) BDRip 1080p от qqss44 & MegaPeer | Лицензия

Скачать lyudi-v-chernom-interneshnl-men-in-black-international-2019-bdrip-1080p-ot-qqss44-megapeer-licenziya.torrent
U Магнитная ссылка Размер: 7.74 GB Раздают: 100 Качают: 70 Добавлен: 2019-10-01 18:20:29
Люди в черном: Интернэшнл / Men in Black International (2019) BDRip 1080p от qqss44 & MegaPeer | Лицензия

Анонсы 1080p от qqss44

Информация о фильме
Название: Люди в черном: Интернэшнл
Оригинальное название: Men in Black International
Год выпуска: 2019
Жанр: Фантастика, боевик, комедия, приключения
Режиссер: Ф. Гэри Грей
В ролях: Тесса Томпсон, Крис Хемсворт, Кумэйл Нанджиани, Ребекка Фергюсон (II), Эмма Томпсон, Лиам Нисон, Рейф Сполл, Кайван Новак, Спенсер Уайлдинг, Марси Хэрриэл, Джесс Радомска, Виктория Фэйт, Аня Совински, Инни Клемонс, Стивен Уайт, Джефф Ким

О фильме:
Люди в черном, тайная организация на страже покоя и безопасности Земли, уже не раз защищали нас от нападения отбросов Вселенной. На этот раз самая большая опасность для мирового сообщества, которой агентам предстоит противостоять — шпион в их рядах.

Страна: Великобритания, США
Студия: Columbia Pictures, Sony Pictures Entertainment (SPE), Amblin Entertainment
Продолжительность: 01:54:49
Перевод: Дублированный | Лицензия

Файл
Формат: MKV, BDRip 1080p
Видео: MPEG-4 AVC, 9009 Кбит/с, 1920x960
Aудио#1: [RUS] AC3 | 48 KHz | 5.1 (Front: L С R Side: L R) + LFE | ~640 kbps
Субтитры: русские форсированные и полные (отключаемые, srt)
Релиз:


[+] МИ

Общее
Уникальный идентификатор : 220716420448094892811173903879379326267 (0xA60C6FB3B58EBC89B0736D1F48C3953B)
Полное имя : H:Men.in.Black.International.(2019).BDRip-1080p.MegaPeer.(qqss44).mkv
Формат : Matroska
Версия формата : Version 2
Размер файла : 7,74 Гбайт
Продолжительность : 1 ч. 54 м.
Общий поток : 9650 Кбит/сек
Название фильма : Men.in.Black.International.(2019).BDRip-1080p.MegaPeer.(qqss44)
Дата кодирования : UTC 2019-10-01 10:54:47
Программа кодирования : mkvmerge v7.8.0 ('River Man') 32bit built on Apr 3 2015 12:11:22
Библиотека кодирования : libebml v1.3.1 + libmatroska v1.4.2

Видео
Идентификатор : 1
Формат : AVC
Формат/Информация : Advanced Video Codec
Профиль формата : High@L5
Параметр CABAC формата : Да
Параметр ReFrames формата : 5 кадров
Идентификатор кодека : V_MPEG4/ISO/AVC
Продолжительность : 1 ч. 54 м.
Битрейт : 9009 Кбит/сек
Ширина : 1920 пикселей
Высота : 960 пикселей
Соотношение сторон : 2,000
Режим частоты кадров : Постоянный
Частота кадров : 23,976 (24000/1001) кадра/сек
Цветовое пространство : YUV
Субдискретизация насыщенности : 4:2:0
Битовая глубина : 8 бит
Тип развёртки : Прогрессивная
Бит/(Пиксели*Кадры) : 0.204
Размер потока : 7,07 Гбайт (91%)
Библиотека кодирования : x264 core 152 r2851 ba24899
Настройки программы : cabac=1 / ref=5 / deblock=1:-3:-3 / analyse=0x3:0x113 / me=umh / subme=11 / psy=1 / psy_rd=1.00:0.00 / mixed_ref=1 / me_range=32 / chroma_me=1 / trellis=2 / 8x8dct=1 / cqm=0 / deadzone=21,11 / fast_pskip=0 / chroma_qp_offset=-2 / threads=12 / lookahead_threads=2 / sliced_threads=0 / nr=0 / decimate=0 / interlaced=0 / bluray_compat=0 / constrained_intra=0 / bframes=9 / b_pyramid=2 / b_adapt=2 / b_bias=0 / direct=3 / weightb=1 / open_gop=0 / weightp=2 / keyint=250 / keyint_min=23 / scenecut=40 / intra_refresh=0 / rc_lookahead=40 / rc=2pass / mbtree=0 / bitrate=9009 / ratetol=1.0 / qcomp=0.65 / qpmin=0 / qpmax=69 / qpstep=4 / cplxblur=20.0 / qblur=0.5 / vbv_maxrate=50000 / vbv_bufsize=62500 / nal_hrd=none / filler=0 / ip_ratio=1.40 / pb_ratio=1.30 / aq=3:0.80
Язык : English
Default : Да
Forced : Нет

Аудио
Идентификатор : 2
Формат : AC-3
Формат/Информация : Audio Coding 3
Расширение режима : CM (complete main)
Параметр Endianness формата : Big
Идентификатор кодека : A_AC3
Продолжительность : 1 ч. 54 м.
Вид битрейта : Постоянный
Битрейт : 640 Кбит/сек
Каналы : 6 каналов
Расположение каналов : Front: L C R, Side: L R, LFE
Частота : 48,0 КГц
Частота кадров : 31,250 кадров/сек (1536 spf)
Метод сжатия : С потерями
Размер потока : 526 Мбайт (7%)
Язык : Russian
Default : Да
Forced : Нет

Текст #1
Идентификатор : 3
Формат : UTF-8
Идентификатор кодека : S_TEXT/UTF8
Идентификатор кодека/Информация : UTF-8 Plain Text
Заголовок : FORCED
Язык : Russian
Default : Да
Forced : Нет

Текст #2
Идентификатор : 4
Формат : UTF-8
Идентификатор кодека : S_TEXT/UTF8
Идентификатор кодека/Информация : UTF-8 Plain Text
Заголовок : FULL
Язык : Russian
Default : Нет
Forced : Нет

Меню
00:00:00.000 : en:Chapter 01
00:07:58.686 : en:Chapter 02
00:15:33.098 : en:Chapter 03
00:20:09.583 : en:Chapter 04
00:27:17.135 : en:Chapter 05
00:34:29.650 : en:Chapter 06
00:46:10.267 : en:Chapter 07
00:50:32.028 : en:Chapter 08
00:59:01.204 : en:Chapter 09
01:03:12.914 : en:Chapter 10
01:10:51.413 : en:Chapter 11
01:14:35.929 : en:Chapter 12
01:25:31.209 : en:Chapter 13
01:28:49.574 : en:Chapter 14
01:34:29.246 : en:Chapter 15
01:43:31.830 : en:Chapter 16




Скриншоты:
[+] Всего файлов в раздаче - 1:
Men.in.Black.International.(2019).BDRip-1080p.MegaPeer.(qqss44).mkv7.74 GB

Показать еще раздачи по запросу люди:
2019-12-06 U Александр Харников - Вежливые люди императора (2019) MP3 602.60 MB ↑ 1 ↓ 4
2019-12-03 U Аствацатуров Андрей - Люди в голом (2013) MP3 296.33 MB ↑ 2 ↓ 1
2019-10-02 U Люди в черном: Интернэшнл / Men in Black International (2019) BDRip от Twister & ExKinoRay | Лицензия 1.47 GB ↑ 49 ↓ 13
2019-10-01 U Люди в черном: Интернэшнл / Men in Black International (2019) BDRip 1080p от селезень | Лицензия 11.80 GB ↑ 259 ↓ 84
2019-10-01 U Люди в черном: Интернэшнл / Men in Black International (2019) BDRip от MegaPeer | Лицензия 1.46 GB ↑ 167 ↓ 66
2019-09-11 U Люди Икс: Тёмный Феникс / Dark Phoenix (2019) HDRip от ExKinoRay | Лицензия 746.49 MB ↑ 31 ↓ 15
2019-09-09 U Люди Икс: Тёмный Феникс / Dark Phoenix (2019) UHD BDRip-HEVC 2160p | 4K | HDR | Лицензия 12.17 GB ↑ 97 ↓ 18

Отзывы
Зарегистрируйтесь чтобы добавить комментарий.
Обратная связь
Copyleft ©