↑↓Torrent.by
Поиск
Логин: Регистрация
Пароль: Восстановить пароль

Люди в черном: Интернэшнл / Men in Black International (2019) BDRip 1080p от селезень | Лицензия

Скачать lyudi-v-chernom-interneshnl-men-in-black-international-2019-bdrip-1080p-ot-selezen-licenziya.torrent
U Магнитная ссылка Размер: 11.80 GB Раздают: 255 Качают: 84 Добавлен: 2019-10-01 18:20:33
Люди в черном: Интернэшнл / Men in Black International (2019) BDRip 1080p от селезень | Лицензия

Название: Люди в черном: Интернэшнл
Оригинальное название: Men in Black International
Год выхода: 2019
Жанр: Фантастика, боевик, комедия, приключения
Режиссер: Ф. Гэри Грей
В ролях: Тесса Томпсон, Крис Хемсворт, Кумэйл Нанджиани, Ребекка Фергюсон (II), Эмма Томпсон, Лиам Нисон, Рейф Сполл, Кайван Новак, Спенсер Уайлдинг, Марси Хэрриэл, Джесс Радомска, Виктория Фэйт, Аня Совински, Инни Клемонс, Стивен Уайт, Джефф Ким

О фильме: Люди в черном, тайная организация на страже покоя и безопасности Земли, уже не раз защищали нас от нападения отбросов Вселенной. На этот раз самая большая опасность для мирового сообщества, которой агентам предстоит противостоять - шпион в их рядах.

Страна: Великобритания, США
Студия: Columbia Pictures, Sony Pictures Entertainment (SPE), Amblin Entertainment
Продолжительность: 01:54:49
Перевод: Дублированный | Лицензия

Качество: BDRip 1080p
Видео: MPEG-4 AVC, 1920x956, 13.4 Mbit/s, 23.976 fps
Аудио #01: 48 kHz, AC3, 5.1, 640 Kbps | Дублированный | RUS |
Аудио #02: 48 kHz, AC3, 5.1, 640 Kbps | Оригинал |  ENG |
Субтитры: Русские (Forced, full), английские

Релиз:


[+] MI
General
Unique ID                   : 198422957786300059390316791110242100789 (0x9546DF2188EF3C3E710F3927A7336635)
Complete name               : D:Video111Men.in.Black.International.2019.BDRip.1080p.seleZen.mkv
Format                      : Matroska
Format version              : Version 4
File size                   : 11.8 GiB
Duration                    : 1 h 54 min
Overall bit rate            : 14.7 Mb/s
Movie name                  : Men in Black: International 2019 from селезень
Encoded date                : UTC 2019-10-01 08:31:43
Writing application         : mkvmerge v22.0.0 ('At The End Of The World') 64-bit
Writing library             : libebml v1.3.5 + libmatroska v1.4.8

Video
ID                          : 1
Format                      : AVC
Format/Info                 : Advanced Video Codec
Format profile              : High@L4.1
Format settings             : CABAC / 4 Ref Frames
Format settings, CABAC      : Yes
Format settings, Reference  : 4 frames
Codec ID                    : V_MPEG4/ISO/AVC
Duration                    : 1 h 54 min
Bit rate                    : 13.4 Mb/s
Width                       : 1 920 pixels
Height                      : 956 pixels
Display aspect ratio        : 2.008
Frame rate mode             : Constant
Frame rate                  : 23.976 (24000/1001) FPS
Color space                 : YUV
Chroma subsampling          : 4:2:0
Bit depth                   : 8 bits
Scan type                   : Progressive
Bits/(Pixel*Frame)          : 0.306
Stream size                 : 10.8 GiB (91%)
Title                       : WiKi
Writing library             : x264 core 129 r2245 bc13772
Encoding settings           : cabac=1 / ref=4 / deblock=1:-3:-3 / analyse=0x3:0x133 / me=umh / subme=11 / psy=1 / psy_rd=1.05:0.10 / mixed_ref=1 / me_range=64 / chroma_me=1 / trellis=2 / 8x8dct=1 / cqm=0 / deadzone=21,11 / fast_pskip=0 / chroma_qp_offset=-3 / threads=12 / lookahead_threads=2 / sliced_threads=0 / nr=0 / decimate=1 / interlaced=0 / bluray_compat=0 / constrained_intra=0 / bframes=10 / b_pyramid=2 / b_adapt=2 / b_bias=0 / direct=3 / weightb=1 / open_gop=0 / weightp=2 / keyint=250 / keyint_min=23 / scenecut=40 / intra_refresh=0 / rc_lookahead=60 / rc=2pass / mbtree=1 / bitrate=13449 / ratetol=1.0 / qcomp=0.60 / qpmin=0 / qpmax=69 / qpstep=4 / cplxblur=20.0 / qblur=0.5 / vbv_maxrate=40000 / vbv_bufsize=30000 / nal_hrd=none / ip_ratio=1.40 / aq=1:0.80
Language                    : English
Default                     : Yes
Forced                      : No

Audio #1
ID                          : 2
Format                      : AC-3
Format/Info                 : Audio Coding 3
Commercial name             : Dolby Digital
Codec ID                    : A_AC3
Duration                    : 1 h 54 min
Bit rate mode               : Constant
Bit rate                    : 640 kb/s
Channel(s)                  : 6 channels
Channel layout              : L R C LFE Ls Rs
Sampling rate               : 48.0 kHz
Frame rate                  : 31.250 FPS (1536 SPF)
Bit depth                   : 16 bits
Compression mode            : Lossy
Stream size                 : 526 MiB (4%)
Title                       : Dub [License]
Language                    : Russian
Service kind                : Complete Main
Default                     : Yes
Forced                      : Yes

Audio #2
ID                          : 3
Format                      : AC-3
Format/Info                 : Audio Coding 3
Commercial name             : Dolby Digital
Codec ID                    : A_AC3
Duration                    : 1 h 54 min
Bit rate mode               : Constant
Bit rate                    : 640 kb/s
Channel(s)                  : 6 channels
Channel layout              : L R C LFE Ls Rs
Sampling rate               : 48.0 kHz
Frame rate                  : 31.250 FPS (1536 SPF)
Bit depth                   : 16 bits
Compression mode            : Lossy
Stream size                 : 526 MiB (4%)
Title                       : Original
Language                    : English
Service kind                : Complete Main
Default                     : No
Forced                      : No

Text #1
ID                          : 4
Format                      : UTF-8
Codec ID                    : S_TEXT/UTF8
Codec ID/Info               : UTF-8 Plain Text
Duration                    : 1 h 13 min
Bit rate                    : 0 b/s
Count of elements           : 15
Stream size                 : 464 Bytes (0%)
Title                       : Forced
Language                    : Russian
Default                     : Yes
Forced                      : Yes

Text #2
ID                          : 5
Format                      : UTF-8
Codec ID                    : S_TEXT/UTF8
Codec ID/Info               : UTF-8 Plain Text
Duration                    : 1 h 53 min
Bit rate                    : 86 b/s
Count of elements           : 1441
Stream size                 : 72.1 KiB (0%)
Title                       : Full
Language                    : Russian
Default                     : No
Forced                      : No

Text #3
ID                          : 6
Format                      : UTF-8
Codec ID                    : S_TEXT/UTF8
Codec ID/Info               : UTF-8 Plain Text
Duration                    : 1 h 43 min
Bit rate                    : 67 b/s
Count of elements           : 1688
Stream size                 : 51.1 KiB (0%)
Title                       : Full
Language                    : English
Default                     : No
Forced                      : No

Text #4
ID                          : 7
Format                      : UTF-8
Codec ID                    : S_TEXT/UTF8
Codec ID/Info               : UTF-8 Plain Text
Duration                    : 1 h 53 min
Bit rate                    : 70 b/s
Count of elements           : 2016
Stream size                 : 58.6 KiB (0%)
Title                       : SDH
Language                    : English
Default                     : No
Forced                      : No

Menu
00:00:00.000                : en:Chapter 01
00:07:58.686                : en:Chapter 02
00:15:33.098                : en:Chapter 03
00:20:09.583                : en:Chapter 04
00:27:17.135                : en:Chapter 05
00:34:29.650                : en:Chapter 06
00:46:10.267                : en:Chapter 07
00:50:32.028                : en:Chapter 08
00:59:01.204                : en:Chapter 09
01:03:12.914                : en:Chapter 10
01:10:51.413                : en:Chapter 11
01:14:35.929                : en:Chapter 12
01:25:31.209                : en:Chapter 13
01:28:49.574                : en:Chapter 14
01:34:29.246                : en:Chapter 15
01:43:31.830                : en:Chapter 16



Скриншоты:
[+] Всего файлов в раздаче - 1:
Men.in.Black.International.2019.BDRip.1080p.seleZen.mkv11.80 GB

Показать еще раздачи по запросу люди:
2019-12-06 U Александр Харников - Вежливые люди императора (2019) MP3 602.60 MB ↑ 1 ↓ 4
2019-12-03 U Аствацатуров Андрей - Люди в голом (2013) MP3 296.33 MB ↑ 2 ↓ 1
2019-10-02 U Люди в черном: Интернэшнл / Men in Black International (2019) BDRip от Twister & ExKinoRay | Лицензия 1.47 GB ↑ 49 ↓ 13
2019-10-01 U Люди в черном: Интернэшнл / Men in Black International (2019) BDRip 1080p от qqss44 & MegaPeer | Лицензия 7.74 GB ↑ 99 ↓ 70
2019-10-01 U Люди в черном: Интернэшнл / Men in Black International (2019) BDRip от MegaPeer | Лицензия 1.46 GB ↑ 167 ↓ 66
2019-09-11 U Люди Икс: Тёмный Феникс / Dark Phoenix (2019) HDRip от ExKinoRay | Лицензия 746.49 MB ↑ 31 ↓ 15
2019-09-09 U Люди Икс: Тёмный Феникс / Dark Phoenix (2019) UHD BDRip-HEVC 2160p | 4K | HDR | Лицензия 12.17 GB ↑ 95 ↓ 18

Отзывы
Зарегистрируйтесь чтобы добавить комментарий.
Обратная связь
Copyleft ©