↑↓Torrent.by
Поиск
Логин: Регистрация
Пароль: Восстановить пароль

Последнее испытание (2018) WEB-DLRip | iTunes

Скачать poslednee-ispytanie-2018-web-dlrip-itunes.torrent
U Магнитная ссылка Размер: 1.45 GB Раздают: 570 Качают: 347 Добавлен: 2019-10-02 18:46:50
Последнее испытание (2018) WEB-DLRip | iTunes

Название: Последнее испытание
Год выхода: 2018
Жанр: Драма, боевик
Страна: Россия
Перевод: Не требуется
Продолжительность: 02:18:03
Режиссер: Алексей А. Петрухин
В ролях: Ирина Купченко, Ирина Алферова, Андрей Мерзликин, Анна Чурина, Елена Захарова, Иван Кокорин, Беслан Терекбаев, Алиса Гребенщикова, Михаил Евланов, Игорь Жижикин и др.

О фильме: Основано на реальных событиях. Фильм посвящен освобождению заложников в московском театральном центре на Дубровке осенью 2002 года. На сцене, где должна была пройти премьера мюзикла, разыгралась драма… Люди шли на праздник — веселый, яркий, а оказались лицом к лицу со смертью. Они, ставшие заложниками, сумевшие пройти страшное испытание, сохранив человеческое достоинство и мужество — обычные люди, ставшие героями…

Файл
Формат: AVI
Качество: WEB-DLRip
Видео: Xvid 73, 720x304, ~1304 kbps, 24,000 fps
Звук: русский, AC3, 2.0 ch, 48 kHz, 192 kbps | iTunes
Субтитры: нет



[+] MI
Общее
Полное имя                               : G:Torrent2PosledneeIspytanieWEBDLRip.avi
Формат                                   : AVI
Формат/Информация                        : Audio Video Interleave
Профиль формата                          : OpenDML
Размер файла                             : 1,45 Гбайт
Продолжительность                        : 2 ч. 18 м.
Общий поток                              : 1508 Кбит/сек
Программа кодирования                    : XviD4PSP 6.0 / 53.6.0

Видео
Идентификатор                            : 0
Формат                                   : MPEG-4 Visual
Профиль формата                          : Advanced Simple@L5
Настройки формата                        : BVOP1 / Custom Matrix
Параметр BVOP формата                    : 1
Параметр QPel формата                    : Нет
Параметр GMC формата                     : Без точки перехода
Параметр матрицы формата                 : Выборочная
Идентификатор кодека                     : XVID
Идентификатор кодека/Подсказка           : XviD
Продолжительность                        : 2 ч. 18 м.
Битрейт                                  : 1304 Кбит/сек
Ширина                                   : 720 пикселей
Высота                                   : 304 пикселя
Соотношение сторон                       : 2,35:1
Частота кадров                           : 24,000 кадра/сек
Цветовое пространство                    : YUV
Субдискретизация насыщенности            : 4:2:0
Битовая глубина                          : 8 бит
Тип развёртки                            : Прогрессивная
Метод сжатия                             : С потерями
Бит/(Пиксели*Кадры)                      : 0.248
Размер потока                            : 1,26 Гбайт (86%)
Библиотека кодирования                   : XviD 73

Аудио
Идентификатор                            : 1
Формат                                   : AC-3
Формат/Информация                        : Audio Coding 3
Параметр Endianness формата              : Big
Идентификатор кодека                     : 2000
Продолжительность                        : 2 ч. 18 м.
Вид битрейта                             : Постоянный
Битрейт                                  : 192 Кбит/сек
Каналы                                   : 2 канала
Расположение каналов                     : Front: L R
Частота                                  : 48,0 КГц
Частота кадров                           : 31,250 кадров/сек (1536 SPF)
Битовая глубина                          : 16 бит
Метод сжатия                             : С потерями
Размер потока                            : 190 Мбайт (13%)
Выравнивание                             : Соединение по промежуткам
Продолжительность промежутка             : 32  мс. (0,77 видеокадр)




Скриншоты:
[+] Всего файлов в раздаче - 1:
PosledneeIspytanieWEBDLRip.avi1.45 GB

Показать еще раздачи по запросу последнее:
2019-10-14 U Последнее желание / Desire (1993) DVDRip | A 1.42 GB ↑ 47 ↓ 20
2019-10-08 U Последнее испытание (2018) WEB-DLRip | iTunes 706.95 MB ↑ 75 ↓ 22
2019-10-06 U Последнее испытание (2018) WEB-DLRip от Scarabey | iTunes 1.45 GB ↑ 118 ↓ 47
2019-10-06 U Последнее испытание (2018) WEB-DLRip-AVC от Files-x | iTunes 2.04 GB ↑ 76 ↓ 11
2019-10-03 U Последнее испытание (2018) WEB-DL 1080p | iTunes 4.77 GB ↑ 535 ↓ 134
2019-03-01 U Последнее похмелье / The Last Hangover (2018) WEBRip 720p | LakeFilms 856.93 MB ↑ 40 ↓ 13
2016-07-29 U Копье Судьбы: Последнее путешествие (2016) PC 587.52 MB ↑ 156 ↓ 28

Отзывы
Зарегистрируйтесь чтобы добавить комментарий.
Обратная связь
Copyleft ©