↑↓Torrent.by
Поиск
Логин: Регистрация
Пароль: Восстановить пароль

Последнее испытание (2018) WEB-DL 1080p | iTunes

Скачать poslednee-ispytanie-2018-web-dl-1080p-itunes.torrent
U Магнитная ссылка Размер: 4.77 GB Раздают: 535 Качают: 134 Добавлен: 2019-10-03 05:33:52
Последнее испытание (2018) WEB-DL 1080p | iTunes

Название: Последнее испытание
Год выхода: 2018
Жанр: Драма, боевик
Страна: Россия
Перевод: Не требуется
Продолжительность: 02:18:03
Режиссер: Алексей А. Петрухин
В ролях: Ирина Купченко, Ирина Алферова, Андрей Мерзликин, Анна Чурина, Елена Захарова, Иван Кокорин, Беслан Терекбаев, Алиса Гребенщикова, Михаил Евланов, Игорь Жижикин и др.

О фильме: Основано на реальных событиях. Фильм посвящен освобождению заложников в московском театральном центре на Дубровке осенью 2002 года. На сцене, где должна была пройти премьера мюзикла, разыгралась драма… Люди шли на праздник — веселый, яркий, а оказались лицом к лицу со смертью. Они, ставшие заложниками, сумевшие пройти страшное испытание, сохранив человеческое достоинство и мужество — обычные люди, ставшие героями…

Файл
Качество: WEB-DL 1080p
Видео: MPEG-4 AVC, 1920x806, 4559 kbps, 24,000 fps
Звук: русский, AC3, 5.1 ch, 48 kHz, 384 kbps | iTunes
Субтитры: нет

Релиз:


[+] MI
Общее
Уникальный идентификатор                 : 229561944454519848372077735516859944445 (0xACB405B4E831D7BCB53D4455F32E4DFD)
Полное имя                               : G:Torrent2PosledneeIspytanieWEBDL1080p.mkv
Формат                                   : Matroska
Версия формата                           : Version 4 / Version 2
Размер файла                             : 4,77 Гбайт
Продолжительность                        : 2 ч. 18 м.
Общий поток                              : 4944 Кбит/сек
Дата кодирования                         : UTC 2019-10-02 13:43:31
Программа кодирования                    : mkvmerge v9.5.0 ('Quiet Fire') 64bit
Библиотека кодирования                   : libebml v1.3.4 + libmatroska v1.4.5

Видео
Идентификатор                            : 1
Формат                                   : AVC
Формат/Информация                        : Advanced Video Codec
Профиль формата                          : High@L4
Настройки формата                        : CABAC / 5 Ref Frames
Параметр CABAC формата                   : Да
Параметр RefFrames формата               : 5 кадров
Идентификатор кодека                     : V_MPEG4/ISO/AVC
Продолжительность                        : 2 ч. 18 м.
Битрейт                                  : 4559 Кбит/сек
Ширина                                   : 1920 пикселей
Высота                                   : 806 пикселей
Соотношение сторон                       : 2,40:1
Режим частоты кадров                     : Постоянный
Частота кадров                           : 24,000 кадра/сек
Цветовое пространство                    : YUV
Субдискретизация насыщенности            : 4:2:0
Битовая глубина                          : 8 бит
Тип развёртки                            : Прогрессивная
Бит/(Пиксели*Кадры)                      : 0.123
Размер потока                            : 4,40 Гбайт (92%)
Язык                                     : English
Default                                  : Да
Forced                                   : Нет
Цветовой диапазон                        : Limited
Основные цвета                           : BT.709
Характеристики трансфера                 : BT.709
Коэффициенты матрицы                     : BT.709

Аудио
Идентификатор                            : 2
Формат                                   : AC-3
Формат/Информация                        : Audio Coding 3
Параметр Endianness формата              : Big
Идентификатор кодека                     : A_AC3
Продолжительность                        : 2 ч. 18 м.
Вид битрейта                             : Постоянный
Битрейт                                  : 384 Кбит/сек
Каналы                                   : 6 каналов
Расположение каналов                     : Front: L C R, Side: L R, LFE
Частота                                  : 48,0 КГц
Частота кадров                           : 31,250 кадров/сек (1536 SPF)
Битовая глубина                          : 16 бит
Метод сжатия                             : С потерями
Задержка видео                           : 22 мс.
Размер потока                            : 379 Мбайт (8%)
Язык                                     : Russian
Default                                  : Да
Forced                                   : Нет

Меню
00:00:00.000                             : en:Глава 1
00:07:44.708                             : en:Глава 2
00:15:52.291                             : en:Глава 3
00:24:46.332                             : en:Глава 4
00:32:10.207                             : en:Глава 5
00:39:49.582                             : en:Глава 6
00:47:05.290                             : en:Глава 7
00:54:42.498                             : en:Глава 8
01:02:06.998                             : en:Глава 9
01:11:28.706                             : en:Глава 10
01:18:56.831                             : en:Глава 11
01:26:17.539                             : en:Глава 12
01:35:41.039                             : en:Глава 13
01:44:26.830                             : en:Глава 14
01:53:09.621                             : en:Глава 15
02:02:49.371                             : en:Глава 16




Скриншоты:
[+] Всего файлов в раздаче - 1:
PosledneeIspytanieWEBDL1080p.mkv4.77 GB

Показать еще раздачи по запросу последнее:
2019-10-14 U Последнее желание / Desire (1993) DVDRip | A 1.42 GB ↑ 47 ↓ 20
2019-10-08 U Последнее испытание (2018) WEB-DLRip | iTunes 706.95 MB ↑ 75 ↓ 22
2019-10-06 U Последнее испытание (2018) WEB-DLRip от Scarabey | iTunes 1.45 GB ↑ 118 ↓ 47
2019-10-06 U Последнее испытание (2018) WEB-DLRip-AVC от Files-x | iTunes 2.04 GB ↑ 76 ↓ 11
2019-10-02 U Последнее испытание (2018) WEB-DLRip | iTunes 1.45 GB ↑ 570 ↓ 347
2019-03-01 U Последнее похмелье / The Last Hangover (2018) WEBRip 720p | LakeFilms 856.93 MB ↑ 40 ↓ 13
2016-07-29 U Копье Судьбы: Последнее путешествие (2016) PC 587.52 MB ↑ 156 ↓ 28

Отзывы
Зарегистрируйтесь чтобы добавить комментарий.
Обратная связь
Copyleft ©