↑↓torrent.by
Поиск
Логин: Регистрация
Пароль: Восстановить пароль

Полночь на злаковом поле / Midnight in the Switchgrass (2021) BDRip 1080p от ELEKTRI4KA | iTunes

Скачать polnoch-na-zlakovom-pole-midnight-in-the-switchgrass-2021-bdrip-1080p-ot-elektri4ka-itunes.torrent
U Магнитная ссылка Размер: 11.22 GB Раздают: 24 Качают: 19 Добавлен: 2021-09-15 06:07:14
Полночь на злаковом поле / Midnight in the Switchgrass (2021) BDRip 1080p от ELEKTRI4KA | iTunes

Название: Полночь на злаковом поле
Оригинальное название: Midnight in the Switchgrass
Год выхода: 2021
Жанр: Триллер, детектив, криминал
Режиссер: Рэндолл Эмметт
В ролях: Меган Фокс, Эмиль Хирш, Брюс Уиллис, Лукас Хаас, Кэйтлин Кармайкл, Олив Элиз Аберкромби, Джейсон Травик, Лидия Халл, Уэлкер Уайт, Алек Монополи, Джеки Крус, Серджо Риццуто, Тайлер Джон Олсон, Ник Коскофф, Каталина Витери, Систин Роуз Сталлоне

О фильме: Пенсакола, 2004 год. Два агента ФБР пытаются накрыть сеть торговцев людьми, когда выясняется, что их дело пересекается с многолетним безрезультатным расследованием серийных убийств молодых женщин. И хотя полицейский начальник слышать не хочет об официальном взаимодействии, ФРБ-ровцы объединяют усилия с местным детективом.

Выпущено: США / BondIt, Emmett/Furla Films, Pimienta, River Bay Films, Verdi Productions
Продолжительность: 01:38:44
Озвучивание: Дублированное | iTunes

Файл
Формат: MKV
Качество: BDRip 1080p
Видео: MPEG-4 AVC, 15.2 Mb/s, 1920x804
Аудио #1: Russian: 48 kHz, AC3 Dolby Digital, 3/2 (L, C, R, l, r) + LFE ch, ~384 Kbps | DUB | iTunes | © ELEKTRI4KA
Аудио #2: English: 48 kHz, AC3 Dolby Digital, 3/2 (L, C, R, l, r) + LFE ch, ~640 Kbps | Original
Субтитры: Russian (Forced), English
Дополнительно: Сохранены оригинальные чаптеры.

Релиз: &


[+] MediaInfo:
Complete name: Polnoch.na.zlakovom.pole.2021.BDRip.1080p.ELEKTRI4KA.UNIONGANG.mkv
Format: Matroska
Format version: Version 4
File size: 11.2 GiB
Duration: 1 h 38 min
Overall bit rate: 16.3 Mb/s
Movie name: Polnoch.na.zlakovom.pole.2021.BDRip.1080p.ELEKTRI4KA.UNIONGANG.
Encoded date: UTC 2021-09-14 18:30:15
Writing application: mkvmerge v8.3.0 ('Over the Horizon') 32bit
Writing library: libebml v1.3.1 + libmatroska v1.4.2

Video
ID: 1
Format: AVC
Format/Info: Advanced Video Codec
Format profile: High@L4.1
Format settings: CABAC / 5 Ref Frames
Format settings, CABAC: Yes
Format settings, Reference frames: 5 frames
Codec ID: V_MPEG4/ISO/AVC
Duration: 1 h 38 min
Bit rate: 15.2 Mb/s
Width: 1 920 pixels
Height: 804 pixels
Display aspect ratio: 2.40:1
Frame rate mode: Constant
Frame rate: 23.976 (24000/1001) FPS
Color space: YUV
Chroma subsampling: 4:2:0
Bit depth: 8 bits
Scan type: Progressive
Bits/(Pixel*Frame): 0.412
Stream size: 10.5 GiB (94%)
Writing library: x264 core 157 r2938 2b00a84 TnP@MTeam Mod
Encoding settings: cabac=1 / ref=5 / deblock=1:-3:-3 / analyse=0x3:0x133 / me=umh / subme=10 / psy=1 / psy_rd=1.05:0.00 / mixed_ref=1 / me_range=32 / chroma_me=1 / trellis=2 / 8x8dct=1 / cqm=0 / deadzone=21, 11 / fast_pskip=0 / chroma_qp_offset=-2 / threads=12 / lookahead_threads=2 / sliced_threads=0 / nr=0 / decimate=0 / interlaced=0 / bluray_compat=0 / constrained_intra=0 / bframes=8 / b_pyramid=2 / b_adapt=2 / b_bias=0 / direct=3 / weightb=1 / open_gop=0 / weightp=2 / keyint=250 / keyint_min=24 / scenecut=40 / intra_refresh=0 / rc_lookahead=250 / rc=crf / mbtree=0 / crf=16.8 / qcomp=0.60 / qpmin=0 / qpmax=69 / qpstep=4 / vbv_maxrate=62500 / vbv_bufsize=78125 / crf_max=0.0 / nal_hrd=none / filler=0 / ip_ratio=1.30 / pb_ratio=1.20 / aq=3:0.80
Language: English
Default: Yes
Forced: No
Color range: Limited
Color primaries: BT.709
Matrix coefficients: BT.709

Audio #1
ID: 2
Format: AC-3
Format/Info: Audio Coding 3
Commercial name: Dolby Digital
Codec ID: A_AC3
Duration: 1 h 38 min
Bit rate mode: Constant
Bit rate: 384 kb/s
Channel(s): 6 channels
Channel layout: L R C LFE Ls Rs
Sampling rate: 48.0 kHz
Frame rate: 31.250 FPS (1536 SPF)
Compression mode: Lossy
Stream size: 271 MiB (2%)
Title: DUB (iTunes)
Language: Russian
Service kind: Complete Main
Default: Yes
Forced: Yes

Audio #2
ID: 3
Format: AC-3
Format/Info: Audio Coding 3
Commercial name: Dolby Digital
Codec ID: A_AC3
Duration: 1 h 38 min
Bit rate mode: Constant
Bit rate: 640 kb/s
Channel(s): 6 channels
Channel layout: L R C LFE Ls Rs
Sampling rate: 48.0 kHz
Frame rate: 31.250 FPS (1536 SPF)
Compression mode: Lossy
Stream size: 452 MiB (4%)
Title: Original
Language: English
Service kind: Complete Main
Default: No
Forced: No

Text #1
ID: 4
Format: UTF-8
Codec ID: S_TEXT/UTF8
Codec ID/Info: UTF-8 Plain Text
Duration: 1 h 17 min
Bit rate: 3 b/s
Count of elements: 45
Stream size: 2.11 KiB (0%)
Title: Forced
Language: Russian
Default: Yes
Forced: No

Text #2
ID: 5
Format: UTF-8
Codec ID: S_TEXT/UTF8
Codec ID/Info: UTF-8 Plain Text
Duration: 1 h 29 min
Bit rate: 50 b/s
Count of elements: 1020
Stream size: 32.6 KiB (0%)
Title: SRT
Language: English
Default: No
Forced: No

Menu
00:00:00.000: en:Chapter 01
00:06:15.875: en:Chapter 02
00:08:55.744: en:Chapter 03
00:16:05.882: en:Chapter 04
00:22:47.616: en:Chapter 05
00:31:44.486: en:Chapter 06
00:36:17.884: en:Chapter 07
00:41:29.320: en:Chapter 08
00:48:01.170: en:Chapter 09
00:53:08.685: en:Chapter 10
01:00:19.324: en:Chapter 11
01:04:29.616: en:Chapter 12
01:10:20.675: en:Chapter 13
01:18:24.116: en:Chapter 14
01:23:52.444: en:Chapter 15
01:29:51.970: en:Chapter 16



Скриншоты:
[+] Всего файлов в раздаче - 1:
Polnoch.na.zlakovom.pole.2021.BDRip.1080p.ELEKTRI4KA.UNIONGANG.mkv11.22 GB

Показать еще раздачи по запросу полночь:
2021-09-15 U Полночь на злаковом поле / Midnight in the Switchgrass (2021) BDRip 1080p от селезень | D, P | iTunes 7.98 GB ↑ 203 ↓ 93
2021-09-15 U Полночь на злаковом поле / Midnight in the Switchgrass (2021) BDRip 720p от селезень | D, P | iTunes 4.21 GB ↑ 121 ↓ 43
2021-09-15 U Полночь на злаковом поле / Midnight in the Switchgrass (2021) HDRip-AVC | iTunes 1.41 GB ↑ 126 ↓ 44
2021-09-15 U Полночь на злаковом поле / Midnight in the Switchgrass (2021) HDRip от Portablius | iTunes 742.24 MB ↑ 75 ↓ 22
2021-09-15 U Полночь на злаковом поле / Midnight in the Switchgrass (2021) HDRip от ELEKTRI4KA | iTunes 1.46 GB ↑ 96 ↓ 39
2021-09-15 U Полночь на злаковом поле / Midnight in the Switchgrass (2021) BDRip 720p от ELEKTRI4KA | iTunes 4.24 GB ↑ 73 ↓ 20
2021-08-14 U Полночь на злаковом поле / Midnight in the Switchgrass (2021) BDRip-AVC от ExKinoRay | HDRezka Studio 743.04 MB ↑ 15 ↓ 9

Отзывы
Зарегистрируйтесь чтобы добавить комментарий.
Загрузите программу
  byTorrent
Обратная связь
Copyleft ©