↑↓Torrent.by
Поиск
Логин: Регистрация
Пароль: Восстановить пароль

История игрушек 4 / Toy Story 4 (2019) BDRip 720p от селезень | D, P | iTunes

Скачать istoriya-igrushek-4-toy-story-2019-bdrip-720p-ot-selezen-d-p-itunes.torrent
U Магнитная ссылка Размер: 4.85 GB Раздают: 199 Качают: 78 Добавлен: 2019-10-04 05:37:44
История игрушек 4 / Toy Story 4 (2019) BDRip 720p от селезень | D, P | iTunes

Название: История игрушек 4
Оригинальное название: Toy Story 4
Год выхода: 2019
Жанр: Мультфильм, фэнтези, комедия, приключения, семейный, полнометражный
Режиссер: Джош Кули
В ролях: Том Хэнкс, Тим Аллен, Энни Поттс, Тони Хейл, Кигэн-Майкл Ки, Мадлен МакГроу, Кристина Хендрикс, Джордан Пил, Киану Ривз, Элли Матсумура

О фильме: Астронавт Базз, ковбой Вуди, пёс Слинки, тиранозавр Рекс и вся команда игрушек снова вместе, и они как никогда готовы к приключениям. С тех пор, как Энди поступил в колледж, игрушки поселились в доме своей новой хозяйки Бонни, которая вот-вот пойдет в детский сад. Первый день в детском саду положит начало череде событий, в которой найдется место и путешествиям с погонями, и знакомству с новыми игрушками, и встречам с некоторыми из старых друзей и даже романтической истории.

Страна: США
Студия: Pixar Animation Studios, Walt Disney Pictures
Продолжительность: 01:40:07
Перевод(ы):
#1: Дублированный | iTunes
#2: Профессиональный многоголосый | HDRezka Studio

Качество: BDRip 720p
Видео: MPEG-4 AVC, 1280x536, 5724 Kbit/s, 23.976 fps
Аудио #01: 48 kHz, AC3, 5.1, 384 Kbps | iTunes | RUS |
Аудио #02: 48 kHz, AC3, 2.0, 192 Kbps | HDRezka Studio | RUS |
Аудио #03: 48 kHz, AC3, 5.1, 640 Kbps | Оригинал |  ENG |
Субтитры: Русские (Full, SDH), английские

Релиз:


[+] MI
General
Unique ID                   : 175733364274572998897586089361827041641 (0x843503CD1B55A4A2C88EA6D3CF7A1169)
Complete name               : D:Video111Toy.Story.4.2019.D.MVO.BDRip.720p.seleZen.mkv
Format                      : Matroska
Format version              : Version 4
File size                   : 4.85 GiB
Duration                    : 1 h 40 min
Overall bit rate            : 6 939 kb/s
Movie name                  : Toy Story 4 2019 from селезень
Encoded date                : UTC 2019-10-03 18:35:35
Writing application         : mkvmerge v22.0.0 ('At The End Of The World') 64-bit
Writing library             : libebml v1.3.5 + libmatroska v1.4.8

Video
ID                          : 1
Format                      : AVC
Format/Info                 : Advanced Video Codec
Format profile              : High@L4.1
Format settings             : CABAC / 12 Ref Frames
Format settings, CABAC      : Yes
Format settings, Reference  : 12 frames
Codec ID                    : V_MPEG4/ISO/AVC
Duration                    : 1 h 40 min
Bit rate                    : 5 724 kb/s
Width                       : 1 280 pixels
Height                      : 536 pixels
Display aspect ratio        : 2.40:1
Frame rate mode             : Constant
Frame rate                  : 23.976 (24000/1001) FPS
Color space                 : YUV
Chroma subsampling          : 4:2:0
Bit depth                   : 8 bits
Scan type                   : Progressive
Bits/(Pixel*Frame)          : 0.348
Stream size                 : 4.00 GiB (82%)
Title                       : playHD
Writing library             : x264 core 158 r2984 3759fcb
Encoding settings           : cabac=1 / ref=12 / deblock=1:-3:-3 / analyse=0x3:0x133 / me=umh / subme=10 / psy=1 / psy_rd=1.00:0.00 / mixed_ref=1 / me_range=32 / chroma_me=1 / trellis=2 / 8x8dct=1 / cqm=0 / deadzone=21,11 / fast_pskip=0 / chroma_qp_offset=-2 / threads=6 / lookahead_threads=1 / sliced_threads=0 / nr=0 / decimate=0 / interlaced=0 / bluray_compat=0 / constrained_intra=0 / bframes=9 / b_pyramid=2 / b_adapt=2 / b_bias=0 / direct=3 / weightb=1 / open_gop=0 / weightp=2 / keyint=250 / keyint_min=23 / scenecut=40 / intra_refresh=0 / rc=crf / mbtree=0 / crf=15.0 / qcomp=0.60 / qpmin=0 / qpmax=69 / qpstep=4 / ip_ratio=1.40 / pb_ratio=1.30 / aq=3:0.85
Language                    : English
Default                     : Yes
Forced                      : No

Audio #1
ID                          : 2
Format                      : AC-3
Format/Info                 : Audio Coding 3
Commercial name             : Dolby Digital
Codec ID                    : A_AC3
Duration                    : 1 h 40 min
Bit rate mode               : Constant
Bit rate                    : 384 kb/s
Channel(s)                  : 6 channels
Channel layout              : L R C LFE Ls Rs
Sampling rate               : 48.0 kHz
Frame rate                  : 31.250 FPS (1536 SPF)
Bit depth                   : 16 bits
Compression mode            : Lossy
Stream size                 : 275 MiB (6%)
Title                       : Dub [iTunes]
Language                    : Russian
Service kind                : Complete Main
Default                     : Yes
Forced                      : Yes

Audio #2
ID                          : 3
Format                      : AC-3
Format/Info                 : Audio Coding 3
Commercial name             : Dolby Digital
Codec ID                    : A_AC3
Duration                    : 1 h 40 min
Bit rate mode               : Constant
Bit rate                    : 192 kb/s
Channel(s)                  : 2 channels
Channel layout              : L R
Sampling rate               : 48.0 kHz
Frame rate                  : 31.250 FPS (1536 SPF)
Bit depth                   : 16 bits
Compression mode            : Lossy
Stream size                 : 137 MiB (3%)
Title                       : MVO [HDRezka Studio]
Language                    : Russian
Service kind                : Complete Main
Default                     : No
Forced                      : No

Audio #3
ID                          : 4
Format                      : AC-3
Format/Info                 : Audio Coding 3
Commercial name             : Dolby Digital
Codec ID                    : A_AC3
Duration                    : 1 h 40 min
Bit rate mode               : Constant
Bit rate                    : 640 kb/s
Channel(s)                  : 6 channels
Channel layout              : L R C LFE Ls Rs
Sampling rate               : 48.0 kHz
Frame rate                  : 31.250 FPS (1536 SPF)
Bit depth                   : 16 bits
Compression mode            : Lossy
Stream size                 : 458 MiB (9%)
Title                       : Original
Language                    : English
Service kind                : Complete Main
Default                     : No
Forced                      : No

Text #1
ID                          : 5
Format                      : UTF-8
Codec ID                    : S_TEXT/UTF8
Codec ID/Info               : UTF-8 Plain Text
Duration                    : 1 h 39 min
Bit rate                    : 106 b/s
Count of elements           : 1656
Stream size                 : 77.2 KiB (0%)
Title                       : Full
Language                    : Russian
Default                     : No
Forced                      : No

Text #2
ID                          : 6
Format                      : UTF-8
Codec ID                    : S_TEXT/UTF8
Codec ID/Info               : UTF-8 Plain Text
Duration                    : 1 h 39 min
Bit rate                    : 121 b/s
Count of elements           : 2039
Stream size                 : 88.7 KiB (0%)
Title                       : SDH
Language                    : Russian
Default                     : No
Forced                      : No

Text #3
ID                          : 7
Format                      : UTF-8
Codec ID                    : S_TEXT/UTF8
Codec ID/Info               : UTF-8 Plain Text
Duration                    : 1 h 39 min
Bit rate                    : 65 b/s
Count of elements           : 1806
Stream size                 : 47.2 KiB (0%)
Title                       : Full
Language                    : English
Default                     : No
Forced                      : No

Menu
00:00:00.000                : en:Chapter 01
00:05:39.798                : en:Chapter 02
00:11:21.097                : en:Chapter 03
00:15:06.239                : en:Chapter 04
00:19:01.140                : en:Chapter 05
00:20:52.042                : en:Chapter 06
00:22:43.821                : en:Chapter 07
00:26:11.111                : en:Chapter 08
00:27:47.082                : en:Chapter 09
00:32:11.846                : en:Chapter 10
00:36:17.425                : en:Chapter 11
00:40:34.640                : en:Chapter 12
00:42:56.699                : en:Chapter 13
00:44:26.872                : en:Chapter 14
00:46:39.380                : en:Chapter 15
00:48:06.175                : en:Chapter 16
00:49:18.664                : en:Chapter 17
00:52:25.809                : en:Chapter 18
00:53:58.568                : en:Chapter 19
00:54:34.479                : en:Chapter 20
00:59:06.960                : en:Chapter 21
01:01:30.645                : en:Chapter 22
01:04:40.752                : en:Chapter 23
01:07:25.249                : en:Chapter 24
01:09:31.042                : en:Chapter 25
01:10:54.834                : en:Chapter 26
01:12:05.154                : en:Chapter 27
01:15:03.040                : en:Chapter 28
01:17:29.770                : en:Chapter 29
01:18:04.846                : en:Chapter 30
01:19:21.840                : en:Chapter 31
01:19:48.116                : en:Chapter 32
01:22:24.940                : en:Chapter 33
01:29:00.293                : en:Chapter 34



Скриншоты:
[+] Всего файлов в раздаче - 1:
Toy.Story.4.2019.D.MVO.BDRip.720p.seleZen.mkv4.85 GB

Показать еще раздачи по запросу история:
2019-11-20 U Нечаев Сергей - Всемирная история для тех, кто всё забыл (2019) FB2 4.90 MB ↑ 44 ↓ 5
2019-11-17 U Американская история ужасов / American Horror Story [S09] (2019) WEB-DLRip | LostFilm 5.25 GB ↑ 52 ↓ 97
2019-11-04 U Побег из сумасшедшего дома: История Нелли Блай / Escaping the Madhouse: The Nellie Bly Story (2019) WEB-DLRip-AVC от OllanDGroup | P 1.64 GB ↑ 100 ↓ 17
2019-10-07 U История игрушек 4 / Toy Story 4 (2019) BDRip 1080p от Scarabey | iTunes 8.35 GB ↑ 63 ↓ 19
2019-10-04 U История игрушек 4 / Toy Story 4 (2019) BDRip-AVC от ExKinoRay | iTunes 1К1.58 GB ↑ 295 ↓ 102
2019-10-04 U История игрушек 4 / Toy Story 4 (2019) BDRip 1080p от селезень | D, P | iTunes 10.48 GB ↑ 303 ↓ 111
2019-10-04 U История игрушек 4 / Toy Story 4 (2019) BDRip от MegaPeer | iTunes 1.42 GB ↑ 274 ↓ 104

Отзывы
Зарегистрируйтесь чтобы добавить комментарий.
Обратная связь
Copyleft ©