↑↓Torrent.by
Поиск
Логин: Регистрация
Пароль: Восстановить пароль

Знахарь [01-16 из 16] (2018) HDTVRip от GeneralFilm

Скачать znahar-01-16-iz-2018-hdtvrip-ot-generalfilm.torrent
U Магнитная ссылка Размер: 10.01 GB Раздают: 80 Качают: 140 Добавлен: 2019-10-04 05:38:17
Знахарь [01-16 из 16] (2018) HDTVRip от GeneralFilm

Год выпуска: 2018
Жанр:  Мелодрама
Выпущено: Россия, Про-синема Фильм продакшн
Режиссер: Ярослав Мочалов
В ролях: Даниил Страхов, Екатерина Кузнецова (II), Николай Иванов (II), Владимир Матвеев, Сергей Колос, Павел Чинарёв, Светлана Смирнова-Марцинкевич, Андрей Ташков, Юрий Ицков, Валерий Гришко, Леонид Громов, Юлия Марченко, Алла Еминцева, Хельга Филиппова, Александра Мареева, Анна Дулова, Максим Ханжов, Артём Карасев, Александр Кононец, Мария Жиганова, Екатерина Суворова

О фильме: Молодой и талантливый нейрохирург Павел Андреев возвращается в Петербург после учебы за границей и устраивается работать в отделение больницы, начальник которого — его бывший учитель. Не все в больнице рады внезапному появлению Павла — его главным конкурентом становится бывший однокурсник Сергей Стрельников. Вне работы жизнь главного героя также непростая: его начальник Николай Семенов просит его провести сложную операцию и удалить запущенную опухоль, а параллельно у молодого врача начинается роман с дочерью Семенова. Всю жизнь Андреева переворачивает несчастный случай, в результате которого он теряет память, но не способность помогать людям.

Качество: HDTVRip
Видео: XviD, ~ 1600 Кбит/с, 720х400, 25 кадр/с
Аудио: Русский (AC3, 2 ch, 192 Кбит/с)
Продолжительность: 16 х ~ 00:50:00
Перевод: Не требуется
Субтитры: нет

Релиз:


[+] MediaInfo

Общее
Полное имя                               : D:Znahar.HDTVRip.GeneralFilm1.Znahar.HDTVRip.GeneralFilm.avi
Формат                                   : AVI
Формат/Информация                        : Audio Video Interleave
Размер файла                             : 641 Мбайт
Продолжительность                        : 50 м. 36 с.
Общий поток                              : 1770 Кбит/сек

Видео
Идентификатор                            : 0
Формат                                   : MPEG-4 Visual
Профиль формата                          : Advanced Simple@L5
Параметр BVOP формата                    : 1
Параметр QPel формата                    : Нет
Параметр GMC формата                     : Без точки перехода
Параметр матрицы формата                 : Выборочная
Идентификатор кодека                     : XVID
Идентификатор кодека/Подсказка           : XviD
Продолжительность                        : 50 м. 36 с.
Битрейт                                  : 1566 Кбит/сек
Ширина                                   : 720 пикселей
Высота                                   : 400 пикселей
Соотношение сторон                       : 16:9
Частота кадров                           : 25,000 кадров/сек
Цветовое пространство                    : YUV
Субдискретизация насыщенности            : 4:2:0
Битовая глубина                          : 8 бит
Тип развёртки                            : Прогрессивная
Метод сжатия                             : С потерями
Бит/(Пиксели*Кадры)                      : 0.217
Размер потока                            : 567 Мбайт (88%)
Библиотека кодирования                   : XviD 1.2.1 (UTC 2008-12-04)

Аудио
Идентификатор                            : 1
Формат                                   : AC-3
Формат/Информация                        : Audio Coding 3
Расширение режима                        : CM (complete main)
Параметр Endianness формата              : Big
Идентификатор кодека                     : 2000
Продолжительность                        : 50 м. 36 с.
Вид битрейта                             : Постоянный
Битрейт                                  : 192 Кбит/сек
Каналы                                   : 2 канала
Расположение каналов                     : Front: L R
Частота                                  : 48,0 КГц
Частота кадров                           : 31,250 кадров/сек (1536 spf)
Битовая глубина                          : 16 бит
Метод сжатия                             : С потерями
Размер потока                            : 69,5 Мбайт (11%)
Выравнивание                             : Соединение по промежуткам
Продолжительность промежутка             : 32  мс. (0,80 видеокадр)




Скриншоты:
[+] Всего файлов в раздаче - 16:
01.Znahar.HDTVRip.GeneralFilm.avi640.55 MB
02.Znahar.HDTVRip.GeneralFilm.avi643.40 MB
03.Znahar.HDTVRip.GeneralFilm.avi627.93 MB
04.Znahar.HDTVRip.GeneralFilm.avi637.39 MB
05.Znahar.HDTVRip.GeneralFilm.avi653.19 MB
06.Znahar.HDTVRip.GeneralFilm.avi646.22 MB
07.Znahar.HDTVRip.GeneralFilm.avi615.49 MB
08.Znahar.HDTVRip.GeneralFilm.avi670.97 MB
09.Znahar.HDTVRip.GeneralFilm.avi630.57 MB
10.Znahar.HDTVRip.GeneralFilm.avi610.06 MB
11.Znahar.HDTVRip.GeneralFilm.avi633.50 MB
12.Znahar.HDTVRip.GeneralFilm.avi637.15 MB
13.Znahar.HDTVRip.GeneralFilm.avi653.21 MB
14.Znahar.HDTVRip.GeneralFilm.avi645.72 MB
15.Znahar.HDTVRip.GeneralFilm.avi661.97 MB
16.Znahar.HDTVRip.GeneralFilm.avi639.97 MB

Похожие раздачи по запросу - знахарь:
2019-10-03 U Знахарь [01х01-16 из 16] (2018) SATRip-AVC 9.54 GB ↑ 22 ↓ 11
2019-10-01 U Знахарь [01-10 из 16] (2018) HDTVRip от GeneralFilm 6.23 GB ↑ 74 ↓ 64

Отзывы
Зарегистрируйтесь чтобы добавить комментарий.
Обратная связь
Copyleft ©