↑↓Torrent.by
Поиск
Логин: Регистрация
Пароль: Восстановить пароль

История игрушек 4 / Toy Story 4 (2019) BDRip-AVC от ExKinoRay | iTunes

Скачать istoriya-igrushek-4-toy-story-2019-bdrip-avc-ot-exkinoray-itunes.torrent
U Магнитная ссылка Размер: 1.58 GB Раздают: 294 Качают: 102 Добавлен: 2019-10-04 19:01:38
История игрушек 4 / Toy Story 4 (2019) BDRip-AVC от ExKinoRay | iTunes

Название: История игрушек 4
Оригинальное название: Toy Story 4
Год выпуска: 2019
Жанр:  Мультфильм, фэнтези, комедия, приключения, семейный, полнометражный
Режиссер: Джош Кули
В ролях: Том Хэнкс, Тим Аллен, Энни Поттс, Тони Хейл, Кигэн-Майкл Ки, Мадлен МакГроу, Кристина Хендрикс, Джордан Пил, Киану Ривз, Элли Матсумура

О фильме: Космический рейнджер Баз Лайтер, ковбой Вуди, собака Спиралька, тиранозавр Рекс и вся команда игрушек снова вместе, и они как никогда готовы к приключениям. С тех пор как Энди поступил в колледж, игрушки поселились в доме своей новой хозяйки Бонни. В свой первый день в школе Бонни смастерила себе из отходов новую игрушку Вилкинса, что положит начало череде событий, в которой найдется место и путешествиям с погонями, и знакомству с новыми игрушками, и встречам с некоторыми из старых друзей, и даже романтической истории.

Страна: США
Студия: Pixar Animation Studios, Walt Disney Pictures
Продолжительность: 01:40:03
Перевод: Дублированный | iTunes

Формат: MKV
Качество: BDRip-AVC
Видео: MPEG-4 AVC, 1024x428 (2.40:1), 23.976 fps, 1870 Kbps, 0.178 bit/pixel
Аудио: 48 kHz, AC3 Dolby Digital, 3/2 (L,C,R,l,r) + LFE ch, ~384 kbps
Субтитры: Russian (Full-length, SDH), английские

Релиз:

Автор релиза:


[+] ОтчетМедиаИнфо
General
Unique ID                                : 228032051057725001707007816189737631625 (0xAB8D602378043FCDB0656069019AFF89)
Complete name                            : F:Toy.Story.4.2019.BDRip.AVC.ExKinoRay.mkv
Format                                   : Matroska
Format version                           : Version 2
File size                                : 1.58 GiB
Duration                                 : 1 h 40 min
Overall bit rate                         : 2 255 kb/s
Movie name                               : Toy Story 4 2019 from ExKinoRay
Encoded date                             : UTC 2019-10-03 20:52:47
Writing application                      : mkvmerge v5.6.0 ('Kenya Kane') built on May 27 2012 16:44:04
Writing library                          : libebml v1.2.3 + libmatroska v1.3.0

Video
ID                                       : 1
Format                                   : AVC
Format/Info                              : Advanced Video Codec
Format profile                           : High@L4.1
Format settings, CABAC                   : Yes
Format settings, ReFrames                : 12 frames
Codec ID                                 : V_MPEG4/ISO/AVC
Duration                                 : 1 h 40 min
Bit rate                                 : 1 870 kb/s
Width                                    : 1 024 pixels
Height                                   : 428 pixels
Display aspect ratio                     : 2.40:1
Frame rate mode                          : Constant
Frame rate                               : 23.976 (23976/1000) FPS
Color space                              : YUV
Chroma subsampling                       : 4:2:0
Bit depth                                : 8 bits
Scan type                                : Progressive
Bits/(Pixel*Frame)                       : 0.178
Stream size                              : 1.28 GiB (81%)
Title                                    : Enigma
Writing library                          : x264 core 152 r2851 ba24899
Encoding settings                        : cabac=1 / ref=12 / deblock=1:-2:-2 / analyse=0x3:0x113 / me=umh / subme=10 / psy=1 / psy_rd=1.00:0.00 / mixed_ref=1 / me_range=32 / chroma_me=1 / trellis=2 / 8x8dct=1 / cqm=0 / deadzone=21,11 / fast_pskip=0 / chroma_qp_offset=-2 / threads=12 / lookahead_threads=3 / sliced_threads=0 / nr=0 / decimate=0 / interlaced=0 / bluray_compat=0 / constrained_intra=0 / bframes=10 / b_pyramid=2 / b_adapt=2 / b_bias=0 / direct=3 / weightb=1 / open_gop=0 / weightp=2 / keyint=240 / keyint_min=23 / scenecut=40 / intra_refresh=0 / rc=2pass / mbtree=0 / bitrate=1870 / ratetol=1.0 / qcomp=0.60 / qpmin=0 / qpmax=51 / qpstep=4 / cplxblur=20.0 / qblur=0.5 / ip_ratio=1.40 / pb_ratio=1.30 / aq=1:1.00
Language                                 : English
Default                                  : Yes
Forced                                   : No
Color range                              : Limited
Color primaries                          : BT.709
Transfer characteristics                 : BT.709
Matrix coefficients                      : BT.709

Audio
ID                                       : 2
Format                                   : AC-3
Format/Info                              : Audio Coding 3
Mode extension                           : CM (complete main)
Format settings, Endianness              : Big
Codec ID                                 : A_AC3
Duration                                 : 1 h 40 min
Bit rate mode                            : Constant
Bit rate                                 : 384 kb/s
Channel(s)                               : 6 channels
Channel positions                        : Front: L C R, Side: L R, LFE
Sampling rate                            : 48.0 kHz
Frame rate                               : 31.250 FPS (1536 spf)
Compression mode                         : Lossy
Stream size                              : 275 MiB (17%)
Title                                    : iTunes
Language                                 : Russian
Default                                  : Yes
Forced                                   : No

Text #1
ID                                       : 3
Format                                   : UTF-8
Codec ID                                 : S_TEXT/UTF8
Codec ID/Info                            : UTF-8 Plain Text
Title                                    : Full
Language                                 : Russian
Default                                  : No
Forced                                   : No

Text #2
ID                                       : 4
Format                                   : UTF-8
Codec ID                                 : S_TEXT/UTF8
Codec ID/Info                            : UTF-8 Plain Text
Title                                    : SDH
Language                                 : Russian
Default                                  : No
Forced                                   : No

Text #3
ID                                       : 5
Format                                   : UTF-8
Codec ID                                 : S_TEXT/UTF8
Codec ID/Info                            : UTF-8 Plain Text
Language                                 : English
Default                                  : No
Forced                                   : No

Menu
00:00:00.000                             : en:Chapter 01
00:05:39.797                             : en:Chapter 02
00:11:21.097                             : en:Chapter 03
00:15:06.238                             : en:Chapter 04
00:19:01.140                             : en:Chapter 05
00:20:52.042                             : en:Chapter 06
00:22:43.820                             : en:Chapter 07
00:26:11.111                             : en:Chapter 08
00:27:47.082                             : en:Chapter 09
00:32:11.846                             : en:Chapter 10
00:36:17.425                             : en:Chapter 11
00:40:34.640                             : en:Chapter 12
00:42:56.699                             : en:Chapter 13
00:44:26.872                             : en:Chapter 14
00:46:39.379                             : en:Chapter 15
00:48:06.174                             : en:Chapter 16
00:49:18.664                             : en:Chapter 17
00:52:25.809                             : en:Chapter 18
00:53:58.568                             : en:Chapter 19
00:54:34.479                             : en:Chapter 20
00:59:06.960                             : en:Chapter 21
01:01:30.645                             : en:Chapter 22
01:04:40.751                             : en:Chapter 23
01:07:25.249                             : en:Chapter 24
01:09:31.041                             : en:Chapter 25
01:10:54.833                             : en:Chapter 26
01:12:05.154                             : en:Chapter 27
01:15:03.040                             : en:Chapter 28
01:17:29.770                             : en:Chapter 29
01:18:04.846                             : en:Chapter 30
01:19:21.840                             : en:Chapter 31
01:19:48.116                             : en:Chapter 32
01:22:24.940                             : en:Chapter 33
01:29:00.293                             : en:Chapter 34




Скриншоты:
[+] Всего файлов в раздаче - 1:
Toy.Story.4.2019.BDRip.AVC.ExKinoRay.mkv1.58 GB

Показать еще раздачи по запросу история:
2019-11-20 U Нечаев Сергей - Всемирная история для тех, кто всё забыл (2019) FB2 4.90 MB ↑ 43 ↓ 5
2019-11-17 U Американская история ужасов / American Horror Story [S09] (2019) WEB-DLRip | LostFilm 5.25 GB ↑ 52 ↓ 97
2019-11-04 U Побег из сумасшедшего дома: История Нелли Блай / Escaping the Madhouse: The Nellie Bly Story (2019) WEB-DLRip-AVC от OllanDGroup | P 1.64 GB ↑ 98 ↓ 17
2019-10-07 U История игрушек 4 / Toy Story 4 (2019) BDRip 1080p от Scarabey | iTunes 8.35 GB ↑ 62 ↓ 19
2019-10-04 U История игрушек 4 / Toy Story 4 (2019) BDRip 720p от селезень | D, P | iTunes 4.85 GB ↑ 197 ↓ 78
2019-10-04 U История игрушек 4 / Toy Story 4 (2019) BDRip 1080p от селезень | D, P | iTunes 10.48 GB ↑ 301 ↓ 110
2019-10-04 U История игрушек 4 / Toy Story 4 (2019) BDRip от MegaPeer | iTunes 1.42 GB ↑ 274 ↓ 104

Отзывы
hyrun
Не, тут скачаю, разница в 100кб у видео с рипом от OlLanDGroup не раз показывала что это не мелочь для метрового LCD

Зарегистрируйтесь чтобы добавить комментарий.
Обратная связь
Copyleft ©