↑↓Torrent.by
Поиск
Логин: Регистрация
Пароль: Восстановить пароль

Чернобыль: Зона отчуждения. Финал [01-03 из 03 + Фильм о фильме] (2019) WEBRip от GeneralFilm

Скачать chernobyl-zona-otchuzhdeniya-final-01-03-iz-film-o-filme-2019-webrip-ot-generalfilm.torrent
U Магнитная ссылка Размер: 4.95 GB Раздают: 89 Качают: 150 Добавлен: 2019-10-04 19:01:47
Чернобыль: Зона отчуждения. Финал [01-03 из 03 + Фильм о фильме] (2019) WEBRip от GeneralFilm

Оригинальное название: Чернобыль: Зона отчуждения. Финал
Год выпуска: 2019
Жанр:  Триллер, фантастика
Выпущено: Россия, «Look Film»
Режиссер: Дмитрий Киселёв
В ролях: Константин Давыдов, Кристина Казинская, Сергей Романович, Анвар Халилулаев, Валерия Дмитриева, Евгений Стычкин, Илья Щербинин, Владимир Ильин, Сергей Дрейден, Евгений Сытый, Иван Мулин, Александр Яценко, Артём Сучков

О фильме: «Чернобыль: Зона отчуждения. Финал» поставит точку в истории пятерых подростков, попытавшихся предотвратить самую известную в мире техногенную катастрофу. Им придётся вернуться, туда, откуда все начиналось – в Чернобыль, чтобы разгадать тайну происхождения Зоны отчуждения. Полнометражный фильм даст ответы на все загадки и интриги, а его создатели обещают выкрутить до максимума динамичность действия, зрелищность экшен-сцен и качество визуальных спецэффектов.

Качество: WEBRip
Видео: XviD build 73, 720x304 (16:9), 25.000 fps, ~ 1850 Kbps (~ 0.330 bit/pixel)
Аудио: 48.0 kHz, AC3, 2/0 ch, 192 kbps
Продолжительность: 3 х ~ 01:40:00 + 1 x 00:49:28
Перевод: Не требуется [Русский]
Cубтитры: нет

Релиз:


[+] MediaInfo
General
Complete name               : D:RazdachiChernobylj.2019.WEBRip.GeneralFilmChernobylj.e01.avi
Format                      : AVI
Format/Info                 : Audio Video Interleave
File size                   : 1.46 GiB
Duration                    : 1 h 41 min
Overall bit rate            : 2 048 kb/s
Writing application         : VirtualDubMod 1.5.10.3 | www.virtualdub-fr.org || (build 2550/release)
Writing library             : VirtualDubMod build 2550/release

Video
ID                          : 0
Format                      : MPEG-4 Visual
Format profile              : Advanced Simple@L5
Format settings             : BVOP1 / Custom Matrix
Format settings, BVOP       : 1
Format settings, QPel       : No
Format settings, GMC        : No warppoints
Format settings, Matrix     : Custom
Codec ID                    : XVID
Codec ID/Hint               : XviD
Duration                    : 1 h 41 min
Bit rate                    : 1 847 kb/s
Width                       : 720 pixels
Height                      : 304 pixels
Display aspect ratio        : 2.35:1
Frame rate                  : 25.000 FPS
Color space                 : YUV
Chroma subsampling          : 4:2:0
Bit depth                   : 8 bits
Scan type                   : Progressive
Compression mode            : Lossy
Bits/(Pixel*Frame)          : 0.337
Stream size                 : 1.31 GiB (90%)
Writing library             : XviD 73

Audio
ID                          : 1
Format                      : AC-3
Format/Info                 : Audio Coding 3
Commercial name             : Dolby Digital
Codec ID                    : 2000
Duration                    : 1 h 41 min
Bit rate mode               : Constant
Bit rate                    : 192 kb/s
Channel(s)                  : 2 channels
Channel layout              : L R
Sampling rate               : 48.0 kHz
Frame rate                  : 31.250 FPS (1536 SPF)
Bit depth                   : 16 bits
Compression mode            : Lossy
Stream size                 : 140 MiB (9%)
Alignment                   : Split accross interleaves
Interleave, duration        : 40  ms (1.00 video frame)
Interleave, preload duratio : 500  ms
Service kind                : Complete Main



Скриншоты:
[+] Всего файлов в раздаче - 4:
Chernobylj.e01.avi1.46 GB
Chernobylj.e02.avi1.45 GB
Chernobylj.e03.avi1.46 GB
Chernobylj.Filjm.O.Filme.avi600.10 MB

Показать еще раздачи по запросу чернобыль:
2019-10-18 U Чернобыль: Зона отчуждения. Финал [01-03 из 03 + Фильм о фильме] (2019) WEBRip от Generalfilm | КПК 1.32 GB ↑ 63 ↓ 17
2019-10-06 U Чернобыль: Зона отчуждения. Финал [01-03 из 03 + Фильм о фильме] WEBRip от Files-x 5.11 GB ↑ 112 ↓ 35
2019-10-05 U Чернобыль: Зона отчуждения. Финал [01-03 из 03 + Фильм о фильме] (2019) WEBRip-AVC от GeneralFilm 4.78 GB ↑ 92 ↓ 134
2019-10-05 U Чернобыль: Зона отчуждения. Финал [1-3 фильмы из 3 + Фильм о фильме] (2019) WEBRip-AVC от Files-x 5.09 GB ↑ 117 ↓ 146
2019-10-03 U Чернобыль: Зона отчуждения. Финал [01-03 из 03 + Фильм о фильме] (2019) WEBRip-AVC от ExKinoRay 6.70 GB ↑ 193 ↓ 364
2019-10-03 U Чернобыль: Зона отчуждения. Финал [01-03 из 03 + Фильм о фильме] (2019) WEBRip 1080p от ExKinoRay 12.92 GB ↑ 340 ↓ 609
2019-10-03 U Чернобыль: Зона отчуждения. Финал [01-03 из 03 + Фильм о фильме] (2019) WEBRip 720p от ExKinoRay 8.88 GB ↑ 382 ↓ 1537

Отзывы
Зарегистрируйтесь чтобы добавить комментарий.
Обратная связь
Copyleft ©