↑↓torrent.by
Поиск
Логин: Регистрация
Пароль: Восстановить пароль

Мой год в Нью-Йорке / My Salinger Year (2020) BDRip 1080p от селезень | iTunes

Скачать moy-god-v-nyu-yorke-my-salinger-year-2020-bdrip-1080p-ot-selezen-itunes.torrent
U Магнитная ссылка Размер: 13.82 GB Раздают: 39 Качают: 6 Добавлен: 2021-09-15 06:07:26
Мой год в Нью-Йорке / My Salinger Year (2020) BDRip 1080p от селезень | iTunes

Название: Мой год в Нью-Йорке
Оригинальное название: My Salinger Year
Год выхода: 2020
Жанр: Мелодрама, комедия
Режиссер: Филипп Фалардо
В ролях: Маргарет Куэлли, Сигурни Уивер, Дуглас Бут, Шана Керслэйк, Джонатан Дубски, Колм Фиор, Лени Паркер, Яник Трусдейл, Сяо Сунь, Гэвин Дреа

О фильме: Джоанн устраивается ассистенткой в литературное агентство, оказываясь в самом сердце богемного Нью-Йорка 1990-х. Девушка разрывается между карьерой, мужчинами и своей настоящей мечтой — стать писательницей. Неожиданно разобраться во всем этом ей помогает голос в телефонной трубке, принадлежащий самому известному писателю-отшельнику, великому Дж. Д. Сэлинджеру. Подобно мудрому профессору он готовит Джоанн к ее финальному экзамену во взрослую жизнь.

Страна: Канада, Ирландия
Студия: micro_scope media, Parallel Film Productions Ltd.
Продолжительность: 01:40:58
Перевод: Дублированный | iTunes

Качество: BDRip 1080p
Видео: MPEG-4 AVC, 1920x1038, 18.6 Mbit/s, 24.000 fps
Аудио #01: 48 kHz, AC3, 5.1, 384 Kbps | iTunes | RUS |
Аудио #02: 48 kHz, AC3, 5.1, 640 Kbps | Оригинал | ENG |
Субтитры: Английские

Релиз: Присоединяйся к:


[+] MI
General
Unique ID                   : 193162464064365570553120525310187684994 (0x9151BCC41AC61BC1236BC3C860724482)
Complete name               : E:VideoMy.Salinger.Year.2020.BDRip.1080p.seleZen.mkv
Format                      : Matroska
Format version              : Version 4
File size                   : 13.8 GiB
Duration                    : 1 h 40 min
Overall bit rate            : 19.6 Mb/s
Movie name                  : My Salinger Year 2020 from seleZen
Encoded date                : UTC 2021-09-14 14:42:01
Writing application         : mkvmerge v59.0.0 ('Shining Star') 64-bit
Writing library             : libebml v1.4.2 + libmatroska v1.6.4

Video
ID                          : 1
Format                      : AVC
Format/Info                 : Advanced Video Codec
Format profile              : High@L4.1
Format settings             : CABAC / 4 Ref Frames
Format settings, CABAC      : Yes
Format settings, Reference  : 4 frames
Codec ID                    : V_MPEG4/ISO/AVC
Duration                    : 1 h 40 min
Bit rate                    : 18.6 Mb/s
Width                       : 1 920 pixels
Height                      : 1 038 pixels
Display aspect ratio        : 1.85:1
Frame rate mode             : Constant
Frame rate                  : 24.000 FPS
Color space                 : YUV
Chroma subsampling          : 4:2:0
Bit depth                   : 8 bits
Scan type                   : Progressive
Bits/(Pixel*Frame)          : 0.388
Stream size                 : 13.1 GiB (95%)
Title                       : iFT
Writing library             : x264 core 163 r3059+79M ~ Encoded by Mocunaman in Portugal
Encoding settings           : cabac=1 / ref=4 / deblock=1:-3:-3 / analyse=0x3:0x113 / me=umh / subme=11 / psy=1 / fade_compensate=0.00 / psy_rd=1.00:0.00 / mixed_ref=1 / me_range=48 / chroma_me=1 / trellis=2 / 8x8dct=1 / cqm=0 / deadzone=21,11 / fast_pskip=0 / chroma_qp_offset=-2 / threads=32 / lookahead_threads=8 / sliced_threads=0 / nr=0 / decimate=0 / interlaced=0 / bluray_compat=0 / constrained_intra=0 / fgo=0 / bframes=10 / b_pyramid=2 / b_adapt=2 / b_bias=0 / direct=3 / weightb=1 / open_gop=0 / weightp=2 / keyint=250 / keyint_min=24 / scenecut=40 / intra_refresh=0 / rc_lookahead=60 / rc=crf / mbtree=0 / crf=17.5000 / qcomp=0.60 / qpmin=0:0:0 / qpmax=69:69:69 / qpstep=4 / vbv_maxrate=62500 / vbv_bufsize=78125 / crf_max=0.0 / nal_hrd=none / filler=0 / ip_ratio=1.30 / pb_ratio=1.20 / aq=3:0.85 / aq-sensitivity=10.00 / aq-factor=1.00:1.00:1.00 / aq2=0 / aq3=0 / zones=0,696,crf=16.5/3360,6953,crf=17/12827,12955,crf=15.5/14551,15243,crf=16.5/24041,26618,crf=16.5/38354,40955,crf=16.5/43219,44599,crf=16.5/52826,55312,crf=16.5/56840,56889,crf=16.5/58118,58605,crf=17/59080,59804,crf=16.5/67652,69427,crf=17/78415,80388,crf=16.5/87877,95334,crf=16.5/101743,107611,crf=16.5/109816,113576,crf=17/120782,124870,crf=17/134710,138022,crf=17/138046,145415,crf=20
Language                    : English
Default                     : Yes
Forced                      : No
Color range                 : Limited
Color primaries             : BT.709
Transfer characteristics    : BT.709
Matrix coefficients         : BT.709

Audio #1
ID                          : 2
Format                      : AC-3
Format/Info                 : Audio Coding 3
Commercial name             : Dolby Digital
Codec ID                    : A_AC3
Duration                    : 1 h 40 min
Bit rate mode               : Constant
Bit rate                    : 384 kb/s
Channel(s)                  : 6 channels
Channel layout              : L R C LFE Ls Rs
Sampling rate               : 48.0 kHz
Frame rate                  : 31.250 FPS (1536 SPF)
Compression mode            : Lossy
Stream size                 : 277 MiB (2%)
Title                       : iTunes
Language                    : Russian
Service kind                : Complete Main
Default                     : Yes
Forced                      : Yes

Audio #2
ID                          : 3
Format                      : AC-3
Format/Info                 : Audio Coding 3
Commercial name             : Dolby Digital
Codec ID                    : A_AC3
Duration                    : 1 h 40 min
Bit rate mode               : Constant
Bit rate                    : 640 kb/s
Channel(s)                  : 6 channels
Channel layout              : L R C LFE Ls Rs
Sampling rate               : 48.0 kHz
Frame rate                  : 31.250 FPS (1536 SPF)
Compression mode            : Lossy
Stream size                 : 462 MiB (3%)
Title                       : Original
Language                    : English
Service kind                : Complete Main
Default                     : No
Forced                      : No

Text #1
ID                          : 4
Format                      : UTF-8
Codec ID                    : S_TEXT/UTF8
Codec ID/Info               : UTF-8 Plain Text
Duration                    : 1 h 34 min
Bit rate                    : 66 b/s
Count of elements           : 1450
Stream size                 : 45.9 KiB (0%)
Title                       : Full
Language                    : English
Default                     : No
Forced                      : No

Text #2
ID                          : 5
Format                      : UTF-8
Codec ID                    : S_TEXT/UTF8
Codec ID/Info               : UTF-8 Plain Text
Duration                    : 1 h 35 min
Bit rate                    : 68 b/s
Count of elements           : 1529
Stream size                 : 48.3 KiB (0%)
Title                       : SDH
Language                    : English
Default                     : No
Forced                      : No

Menu
00:00:00.000                : Chapter 01
00:07:48.458                : Chapter 02
00:16:41.708                : Chapter 03
00:26:12.833                : Chapter 04
00:33:27.833                : Chapter 05
00:43:19.667                : Chapter 06
00:50:57.625                : Chapter 07
00:59:51.167                : Chapter 08
01:08:20.875                : Chapter 09
01:18:11.417                : Chapter 10
01:26:42.958                : Chapter 11
01:32:49.000                : Chapter 12



Скриншоты:
[+] Всего файлов в раздаче - 1:
My.Salinger.Year.2020.BDRip.1080p.seleZen.mkv13.82 GB

Похожие раздачи по запросу - йорке:
2021-09-15 U Мой год в Нью-Йорке / My Salinger Year (2020) HDRip-AVC | iTunes 2.34 GB ↑ 27 ↓ 23

Отзывы
Зарегистрируйтесь чтобы добавить комментарий.
Загрузите программу
  byTorrent
Обратная связь
Copyleft ©