↑↓Torrent.by
Поиск
Логин: Регистрация
Пароль: Восстановить пароль
Загрузка...

Трудности выживания (2019) WEB-DLRip-AVC от ExKinoRay | iTunes

Скачать trudnosti-vyzhivaniya-2019-web-dlrip-avc-ot-exkinoray-itunes.torrent
U Магнитная ссылка Размер: 743.92 MB Раздают: 100 Качают: 17 Добавлен: 2019-10-05 11:55:06
Трудности выживания (2019) WEB-DLRip-AVC от ExKinoRay | iTunes

Название: Трудности выживания
Год выпуска: 2019
Жанр:  Комедия, мелодрама
Режиссёр: Евгений Торрес
В ролях: Василий Бриченко, Елизавета Кононова, Ян Цапник, Артем Маркарьян, Анна Ардова, Александр Самойленко, Николай Фоменко, Надежда Сысоева, Александр Носков, Максим Важов

О фильме:
Начинающая журналистка Нина в погоне за сенсацией отправляется на необитаемый остров, где, по слухам, живет миллионер-затворник. Баркас со съёмочной группой попадает в жуткий шторм, и Нина приходит в сознание уже на пустынном берегу. К счастью, это именно тот остров, который ей был нужен, а значит, она оказалась в надежных руках молодого и симпатичного героя своего репортажа. Но только Нина еще не подозревает, что на самом деле это ее коллега, местный журналист, которому просто нужна была горячая тема, и он её выдумал. А ещё он ничего не смыслит в выживании…

Страна: Россия
Студия: 2Д Целлулоид
Продолжительность: 01:29:50
Язык: Русский | iTunes

Файл
Формат: MKV
Качество: WEB-DLRip-AVC
Видео: MPEG-4 AVC, 784x328, - 1082 Кбит/с
Аудио:  AAC-HE, 2 ch, - 76 Кбит/с
Субтитры: Нет


[+] MI
Общее
Уникальный идентификатор : 236716671304748939228490760626856193458 (0xB215F8F9B3AFEFB768868F54F772EDB2)
Полное имя : D:MOVIESTrudnosti.vyzhivaniya.2019.WEB-DLRip.AVC.ExKinoRay.mkv
Формат : Matroska
Версия формата : Version 4 / Version 2
Размер файла : 744 Мбайт
Продолжительность : 1 ч. 29 м.
Общий поток : 1158 Кбит/сек
Дата кодирования : UTC 2019-10-04 04:52:55
Программа кодирования : mkvmerge v35.0.0 ('All The Love In The World') 64-bit
Библиотека кодирования : libebml v1.3.9 + libmatroska v1.5.2

Видео
Идентификатор : 1
Формат : AVC
Формат/Информация : Advanced Video Codec
Профиль формата : High@L4.1
Параметр CABAC формата : Да
Параметр RefFrames формата : 12 кадров
Идентификатор кодека : V_MPEG4/ISO/AVC
Продолжительность : 1 ч. 29 м.
Битрейт : 1082 Кбит/сек
Ширина : 784 пикселя
Высота : 328 пикселей
Соотношение сторон : 2,40:1
Режим частоты кадров : Постоянный
Частота кадров : 24,000 кадра/сек
Цветовое пространство : YUV
Субдискретизация насыщенности : 4:2:0
Битовая глубина : 8 бит
Тип развёртки : Прогрессивная
Бит/(Пиксели*Кадры) : 0.175
Размер потока : 694 Мбайт (93%)
Библиотека кодирования : x264 core 152 r2851 ba24899
Настройки программы : cabac=1 / ref=12 / deblock=1:-3:-2 / analyse=0x3:0x133 / me=umh / subme=11 / psy=1 / psy_rd=1.00:0.10 / mixed_ref=1 / me_range=32 / chroma_me=1 / trellis=2 / 8x8dct=1 / cqm=0 / deadzone=21,11 / fast_pskip=0 / chroma_qp_offset=-3 / threads=6 / lookahead_threads=1 / sliced_threads=0 / nr=0 / decimate=0 / interlaced=0 / bluray_compat=0 / constrained_intra=0 / bframes=12 / b_pyramid=2 / b_adapt=2 / b_bias=0 / direct=3 / weightb=1 / open_gop=0 / weightp=2 / keyint=240 / keyint_min=23 / scenecut=40 / intra_refresh=0 / rc=2pass / mbtree=0 / bitrate=1082 / ratetol=1.0 / qcomp=0.60 / qpmin=0 / qpmax=69 / qpstep=4 / cplxblur=20.0 / qblur=0.5 / ip_ratio=1.40 / pb_ratio=1.30 / aq=1:1.00
Default : Да
Forced : Нет

Аудио
Идентификатор : 2
Формат : AAC
Формат/Информация : Advanced Audio Codec
Профиль формата : HE-AAC / LC
Идентификатор кодека : A_AAC
Продолжительность : 1 ч. 29 м.
Битрейт : 76,0 Кбит/сек
Каналы : 2 канала
Расположение каналов : Front: L R
Частота : 48,0 КГц / 24,0 КГц
Частота кадров : 23,438 кадра/сек (1024 SPF)
Метод сжатия : С потерями
Задержка видео : 31 мс.
Размер потока : 48,8 Мбайт (7%)
Default : Да
Forced : Нет

Меню
00:00:00.000 : ru:Глава 1
00:05:23.208 : ru:Глава 2
00:12:10.624 : ru:Глава 3
00:20:20.124 : ru:Глава 4
00:26:11.790 : ru:Глава 5
00:34:06.956 : ru:Глава 6
00:42:28.497 : ru:Глава 7
00:51:50.872 : ru:Глава 8
01:00:58.788 : ru:Глава 9
01:05:57.413 : ru:Глава 10
01:12:12.121 : ru:Глава 11
01:20:42.621 : ru:Глава 12



Скриншоты:
[+] Всего файлов в раздаче - 1:
Trudnosti.vyzhivaniya.2019.WEB-DLRip.AVC.ExKinoRay.mkv743.92 MB

Похожие раздачи по запросу - трудности:
2019-10-06 U Трудности выживания (2019) WEB-DLRip от ExKinoRay | iTunes 747.96 MB ↑ 52 ↓ 12
2019-10-05 U Трудности выживания (2019) WEB-DLRip-AVC от Files-x | iTunes 1.46 GB ↑ 185 ↓ 31
2019-10-03 U Трудности выживания (2019) WEB-DL 1080p | iTunes 3.10 GB ↑ 22 ↓ 30
2019-10-03 U Трудности выживания (2019) WEB-DLRip от MegaPeer | iTunes 1.46 GB ↑ 204 ↓ 120
2018-10-15 U Временные трудности (2018) WEB-DLRip от Scarabey 1.39 GB ↑ 757 ↓ 112
2018-10-14 U Временные трудности (2017) WEB-DLRip от GeneralFilm 744.69 MB ↑ 167 ↓ 67

Отзывы
Зарегистрируйтесь чтобы добавить комментарий.
Обратная связь
Copyleft ©