↑↓Torrent.by
Поиск
Логин: Регистрация
Пароль: Восстановить пароль
Загрузка...

Чернобыль: Зона отчуждения. Финал [01-03 из 03 + Фильм о фильме] (2019) WEBRip-AVC от GeneralFilm

Скачать chernobyl-zona-otchuzhdeniya-final-01-03-iz-film-o-filme-2019-webrip-avc-ot-generalfilm.torrent
U Магнитная ссылка Размер: 4.78 GB Раздают: 57 Качают: 127 Добавлен: 2019-10-05 11:55:10
Чернобыль: Зона отчуждения. Финал [01-03 из 03 + Фильм о фильме] (2019)  WEBRip-AVC от GeneralFilm

Год выпуска: 2019
Жанр:  Триллер, фантастика
Выпущено: Россия, PREMIER Studios, Look Film
Режиссер: Дмитрий Киселёв
В ролях: Константин Давыдов, Кристина Казинская, Сергей Романович, Анвар Халилулаев, Валерия Дмитриева, Евгений Стычкин, Илья Щербинин, Владимир Ильин, Сергей Дрейден, Евгений Сытый, Иван Мулин, Александр Яценко, Артём Сучков

О фильме: «Чернобыль: Зона отчуждения. Финал» поставит точку в истории пятерых подростков, попытавшихся предотвратить самую известную в мире техногенную катастрофу. Им придётся вернуться, туда, откуда все начиналось – в Чернобыль, чтобы разгадать тайну происхождения Зоны отчуждения. Полнометражный фильм даст ответы на все загадки и интриги, а его создатели обещают выкрутить до максимума динамичность действия, зрелищность экшен-сцен и качество визуальных спецэффектов.

Кодек: h.264
Качество: WEBRip-AVC
Видео: MPEG-4 AVC, ~ 1730 Кбит/с, 720x304, 720x400,  25 кадр/с
Аудио: Русский (AC3, 2 ch, 192 Кбит/с)
Продолжительность: 2 x ~ 01:40:00
Перевод: Не требуется
Субтитры: нет

Релиз:


[+] MediaInfo

Общее
Уникальный идентификатор                 : 210358108619335239983896222733346508454 (0x9E417F7FC6C60DF68A1D35901C1B8EA6)
Полное имя                               : D:Chernobyl.Zona.otchuzhdeniya.Final.WEBRip.GeneralFilm1.Chernobyl.Zona.otchuzhdeniya.Final.WEBRip.GeneralFilm.mkv
Формат                                   : Matroska
Версия формата                           : Version 2
Размер файла                             : 1,36 Гбайт
Продолжительность                        : 1 ч. 41 м.
Общий поток                              : 1920 Кбит/сек
Дата кодирования                         : UTC 2019-09-19 01:16:20
Программа кодирования                    : mkvmerge v7.8.0 ('River Man') 32bit built on Apr  3 2015 12:11:22
Библиотека кодирования                   : libebml v1.3.1 + libmatroska v1.4.2

Видео
Идентификатор                            : 1
Формат                                   : AVC
Формат/Информация                        : Advanced Video Codec
Профиль формата                          : High@L4.1
Параметр CABAC формата                   : Да
Параметр ReFrames формата                : 9 кадров
Идентификатор кодека                     : V_MPEG4/ISO/AVC
Продолжительность                        : 1 ч. 41 м.
Битрейт                                  : 1726 Кбит/сек
Ширина                                   : 720 пикселей
Высота                                   : 304 пикселя
Соотношение сторон                       : 2,35:1
Режим частоты кадров                     : Постоянный
Частота кадров                           : 25,000 кадров/сек
Цветовое пространство                    : YUV
Субдискретизация насыщенности            : 4:2:0
Битовая глубина                          : 8 бит
Тип развёртки                            : Прогрессивная
Бит/(Пиксели*Кадры)                      : 0.315
Размер потока                            : 1,20 Гбайт (88%)
Библиотека кодирования                   : x264 core 146 r2538 121396c
Настройки программы                      : cabac=1 / ref=9 / deblock=1:-2:-1 / analyse=0x3:0x113 / me=umh / subme=9 / psy=1 / psy_rd=1.00:0.15 / mixed_ref=1 / me_range=32 / chroma_me=1 / trellis=2 / 8x8dct=1 / cqm=0 / deadzone=21,11 / fast_pskip=0 / chroma_qp_offset=-3 / threads=18 / lookahead_threads=2 / sliced_threads=0 / nr=0 / decimate=1 / interlaced=0 / bluray_compat=0 / constrained_intra=0 / bframes=9 / b_pyramid=2 / b_adapt=2 / b_bias=0 / direct=3 / weightb=1 / open_gop=0 / weightp=2 / keyint=250 / keyint_min=25 / scenecut=40 / intra_refresh=0 / rc_lookahead=40 / rc=2pass / mbtree=0 / bitrate=1726 / ratetol=1.0 / qcomp=0.60 / qpmin=0 / qpmax=69 / qpstep=4 / cplxblur=20.0 / qblur=0.5 / vbv_maxrate=14000 / vbv_bufsize=14000 / nal_hrd=none / filler=0 / ip_ratio=1.40 / pb_ratio=1.30 / aq=2:1.00
Default                                  : Да
Forced                                   : Нет
Цветовой диапазон                        : Limited
Основные цвета                           : BT.709
Характеристики трансфера                 : BT.709
Коэффициенты матрицы                     : BT.709

Аудио
Идентификатор                            : 2
Формат                                   : AC-3
Формат/Информация                        : Audio Coding 3
Расширение режима                        : CM (complete main)
Параметр Endianness формата              : Big
Идентификатор кодека                     : A_AC3
Продолжительность                        : 1 ч. 41 м.
Вид битрейта                             : Постоянный
Битрейт                                  : 192 Кбит/сек
Каналы                                   : 2 канала
Расположение каналов                     : Front: L R
Частота                                  : 48,0 КГц
Частота кадров                           : 31,250 кадров/сек (1536 spf)
Битовая глубина                          : 16 бит
Метод сжатия                             : С потерями
Размер потока                            : 140 Мбайт (10%)
Default                                  : Да
Forced                                   : Нет




Скриншоты:
[+] Всего файлов в раздаче - 4:
01.Chernobyl.Zona.otchuzhdeniya.Final.WEBRip.GeneralFilm.mkv1.36 GB
02.Chernobyl.Zona.otchuzhdeniya.Final.WEBRip.GeneralFilm.mkv1.36 GB
03.Chernobyl.Zona.otchuzhdeniya.Final.WEBRip.GeneralFilm.mkv1.36 GB
Chernobyl.Zona.otchuzhdeniya.Final.(Film.o.filme).WEBRip.GeneralFilm.mkv705.32 MB

Показать еще раздачи по запросу чернобыль:
Вчера U Чернобыль: Зона отчуждения. Финал [01-03 из 03 + Фильм о фильме] (2019) WEBRip от Generalfilm | КПК 1.32 GB ↑ 60 ↓ 13
2019-10-06 U Чернобыль: Зона отчуждения. Финал [01-03 из 03 + Фильм о фильме] WEBRip от Files-x 5.11 GB ↑ 66 ↓ 35
2019-10-05 U Чернобыль: Зона отчуждения. Финал [1-3 фильмы из 3 + Фильм о фильме] (2019) WEBRip-AVC от Files-x 5.09 GB ↑ 117 ↓ 145
2019-10-04 U Чернобыль: Зона отчуждения. Финал [01-03 из 03 + Фильм о фильме] (2019) WEBRip от GeneralFilm 4.95 GB ↑ 91 ↓ 147
2019-10-03 U Чернобыль: Зона отчуждения. Финал [01-03 из 03 + Фильм о фильме] (2019) WEBRip-AVC от ExKinoRay 6.70 GB ↑ 175 ↓ 362
2019-10-03 U Чернобыль: Зона отчуждения. Финал [01-03 из 03 + Фильм о фильме] (2019) WEBRip 1080p от ExKinoRay 12.92 GB ↑ 272 ↓ 581
2019-10-03 U Чернобыль: Зона отчуждения. Финал [01-03 из 03 + Фильм о фильме] (2019) WEBRip 720p от ExKinoRay 8.88 GB ↑ 380 ↓ 1537

Отзывы
Зарегистрируйтесь чтобы добавить комментарий.
Обратная связь
Copyleft ©