↑↓torrent.by
Поиск
Логин: Регистрация
Пароль: Восстановить пароль

Похищенный / Infidel (2019) BDRip 1080p от ELEKTRI4KA | iTunes

Скачать pohischennyy-infidel-2019-bdrip-1080p-ot-elektri4ka-itunes.torrent
U Магнитная ссылка Размер: 11.95 GB Раздают: 48 Качают: 10 Добавлен: 2021-09-15 06:07:35
Похищенный / Infidel (2019) BDRip 1080p от ELEKTRI4KA | iTunes

«Жена христианского блогера пытается спасти мужа из иранского плена. Триллер, вдохновленный реальными событиями.»

Название: Похищенный
Оригинальное название: Infidel
Год выхода: 2019
Жанр: Боевик, триллер
Режиссер: Сайрус Наурасте
В ролях: Джеймс Кэвизел, Клаудия Карван, Хэл Озсэн, Стелио Саванте, Али Кассем, Биджан Данешманд, Кутайба Абдельхак, Изабель Адриани, Лейла Араби, Джей Эр Касия

О фильме: Американский журналист похищен иранским режимом во время переговоров в Каире. Его перевозят на Ближний Восток, чтобы предать местному суду по ложным обвинениям. Жена журналиста, работающая в Госдепартаменте США, пытается использовать свое влияние, чтобы вовлечь американское правительство в спасательную операцию. Но вскоре женщина понимает, что властям безразлична судьба их журналиста. Тогда она сама едет на Ближний Восток, чтобы своими силами вытащить мужа из плена.

Выпущено: США / Cloudburst Entertainment, D'Souza Media, New Path Pictures
Продолжительность: 01:48:07
Озвучивание: Дублированное | iTunes

Файл
Формат: MKV
Качество: BDRip 1080p
Видео: MPEG-4 AVC, 14.8 Mb/s, 1920x800
Аудио #1: Russian: 48 kHz, AC3 Dolby Digital, 3/2 (L, C, R, l, r) + LFE ch, ~384 Kbps | DUB | iTunes
Аудио #2: English: 48 kHz, AC3 Dolby Digital, 3/2 (L, C, R, l, r) + LFE ch, ~640 Kbps | Original
Субтитры: English
Дополнительно: Сохранены оригинальные чаптеры.

Релиз: &


[+] MediaInfo:
Complete name: Pohischennyiy.2019.BDRip.1080p.ELEKTRI4KA.UNIONGANG.mkv
Format: Matroska
Format version: Version 4
File size: 11.9 GiB
Duration: 1 h 48 min
Overall bit rate: 15.8 Mb/s
Movie name: Pohischennyiy.2019.BDRip.1080p.ELEKTRI4KA.UNIONGANG.
Encoded date: UTC 2021-09-14 12:16:01
Writing application: mkvmerge v8.3.0 ('Over the Horizon') 32bit
Writing library: libebml v1.3.1 + libmatroska v1.4.2

Video
ID: 1
Format: AVC
Format/Info: Advanced Video Codec
Format profile: High@L4.1
Format settings: CABAC / 5 Ref Frames
Format settings, CABAC: Yes
Format settings, Reference frames: 5 frames
Codec ID: V_MPEG4/ISO/AVC
Duration: 1 h 48 min
Bit rate: 14.8 Mb/s
Width: 1 920 pixels
Height: 800 pixels
Display aspect ratio: 2.40:1
Frame rate mode: Constant
Frame rate: 23.976 (24000/1001) FPS
Color space: YUV
Chroma subsampling: 4:2:0
Bit depth: 8 bits
Scan type: Progressive
Bits/(Pixel*Frame): 0.402
Stream size: 11.2 GiB (94%)
Writing library: x264 core 161 r3018+53 ~ Encoded by Mocunaman in Portugal
Encoding settings: cabac=1 / ref=5 / deblock=1:-3:-3 / analyse=0x3:0x113 / me=umh / subme=11 / psy=1 / fade_compensate=0.00 / psy_rd=1.00:0.00 / mixed_ref=1 / me_range=32 / chroma_me=1 / trellis=2 / 8x8dct=1 / cqm=0 / deadzone=21, 11 / fast_pskip=0 / chroma_qp_offset=-2 / threads=25 / lookahead_threads=6 / sliced_threads=0 / nr=0 / decimate=0 / interlaced=0 / bluray_compat=0 / constrained_intra=0 / fgo=0 / bframes=10 / b_pyramid=2 / b_adapt=2 / b_bias=0 / direct=3 / weightb=1 / open_gop=0 / weightp=2 / keyint=250 / keyint_min=23 / scenecut=40 / intra_refresh=0 / rc_lookahead=60 / rc=crf / mbtree=0 / crf=16.5000 / qcomp=0.65 / qpmin=0:0:0 / qpmax=69:69:69 / qpstep=4 / vbv_maxrate=62500 / vbv_bufsize=78125 / crf_max=0.0 / nal_hrd=none / filler=0 / ip_ratio=1.30 / pb_ratio=1.20 / aq=3:0.85 / aq-sensitivity=10.00 / aq-factor=1.00:1.00:1.00 / aq2=0 / aq3=0 / zones=0, 23415, crf=16/27759, 30879, crf=16/39660, 42924, crf=16/49110, 49800, crf=16/66977, 69833, crf=16/78449, 83129, crf=16/87953, 102305, crf=16/121313, 122455, crf=16/125055, 129874, crf=16/131338, 132706, crf=16/134362, 151546, crf=16
Language: English
Default: Yes
Forced: No
Color range: Limited
Color primaries: BT.709
Transfer characteristics: BT.709
Matrix coefficients: BT.709

Audio #1
ID: 2
Format: AC-3
Format/Info: Audio Coding 3
Commercial name: Dolby Digital
Codec ID: A_AC3
Duration: 1 h 48 min
Bit rate mode: Constant
Bit rate: 384 kb/s
Channel(s): 6 channels
Channel layout: L R C LFE Ls Rs
Sampling rate: 48.0 kHz
Frame rate: 31.250 FPS (1536 SPF)
Compression mode: Lossy
Stream size: 297 MiB (2%)
Title: DUB (iTunes)
Language: Russian
Service kind: Complete Main
Default: Yes
Forced: Yes

Audio #2
ID: 3
Format: AC-3
Format/Info: Audio Coding 3
Commercial name: Dolby Digital
Codec ID: A_AC3
Duration: 1 h 48 min
Bit rate mode: Constant
Bit rate: 640 kb/s
Channel(s): 6 channels
Channel layout: L R C LFE Ls Rs
Sampling rate: 48.0 kHz
Frame rate: 31.250 FPS (1536 SPF)
Compression mode: Lossy
Stream size: 495 MiB (4%)
Title: Original
Language: English
Service kind: Complete Main
Default: No
Forced: No

Text #1
ID: 4
Format: UTF-8
Codec ID: S_TEXT/UTF8
Codec ID/Info: UTF-8 Plain Text
Duration: 1 h 43 min
Bit rate: 48 b/s
Count of elements: 1324
Stream size: 37.3 KiB (0%)
Title: Full .srt
Language: English
Default: No
Forced: No

Text #2
ID: 5
Format: UTF-8
Codec ID: S_TEXT/UTF8
Codec ID/Info: UTF-8 Plain Text
Duration: 1 h 47 min
Bit rate: 56 b/s
Count of elements: 1670
Stream size: 44.5 KiB (0%)
Title: SDH .srt
Language: English
Default: No
Forced: No

Menu
00:00:00.000: en:Chapter 1
00:05:35.293: en:Chapter 2
00:10:34.676: en:Chapter 3
00:16:13.347: en:Chapter 4
00:21:27.035: en:Chapter 5
00:27:39.074: en:Chapter 6
00:33:27.380: en:Chapter 7
00:37:02.553: en:Chapter 8
00:44:43.180: en:Chapter 9
00:50:39.703: en:Chapter 10
00:54:15.919: en:Chapter 11
01:01:58.965: en:Chapter 12
01:06:03.542: en:Chapter 13
01:11:08.180: en:Chapter 14
01:17:02.117: en:Chapter 15
01:24:15.467: en:Chapter 16
01:28:13.705: en:Chapter 17
01:34:20.738: en:Chapter 18
01:39:18.369: en:Chapter 19
01:45:12.388: en:Chapter 20



Скриншоты:
[+] Всего файлов в раздаче - 1:
Pohischennyiy.2019.BDRip.1080p.ELEKTRI4KA.UNIONGANG.mkv11.95 GB

Похожие раздачи по запросу - похищенный:
2021-09-15 U Похищенный / Infidel (2019) BDRip 720p от ELEKTRI4KA | iTunes 6.46 GB ↑ 52 ↓ 14
2021-09-15 U Похищенный / Infidel (2019) HDRip от ELEKTRI4KA | iTunes 1.46 GB ↑ 42 ↓ 19

Отзывы
Зарегистрируйтесь чтобы добавить комментарий.
Загрузите программу
  byTorrent
Обратная связь
Copyleft ©