↑↓torrent.by
Поиск
Логин: Регистрация
Пароль: Восстановить пароль

Аннигиляция / Annihilation (2018) BDRip-HEVC 1080p от HEVC-CLUB | D, P, A | iTunes

Скачать annigilyaciya-annihilation-2018-bdrip-hevc-1080p-ot-club-d-p-a-itunes.torrent
U Магнитная ссылка Размер: 5.47 GB Раздают: 188 Качают: 26 Добавлен: 2019-10-06 07:41:00
Аннигиляция / Annihilation (2018) BDRip-HEVC 1080p от HEVC-CLUB | D, P, A | iTunes

Название: Аннигиляция
Оригинальное название: Annihilation
Год выхода: 2018
Производство: Великобритания, США / Paramount Pictures, DNA Films, Skydance Productions
Жанр:  Фантастика, фэнтези, ужасы, триллер, драма, детектив, приключения
Перевод: Дубляж (iTunes), профессиональный (многоголосый, закадровый), авторский (одноголосый, закадровый)
Продолжительность: 01:55:26

Режиссер: Алекс Гарленд
В ролях: Натали Портман, Дженнифер Джейсон Ли, Оскар Айзек, Тесса Томпсон, Джина Родригез, Тува Новотны, Бенедикт Вонг, Дэвид Гяси, Соноя Мидзуно, Джон Шваб

Описание: На Землю прилетает маленький метеорит и становится причиной больших перемен. Он врезается в одиноко стоящий маяк, что загадочным образом меняет территорию вокруг.
Профессор биологии Лина уже год страдает от потери мужа-военного. Кейн отправился на очередное секретное задание, но так и не вернулся — жив ли, погиб — женщина не знает, пока однажды дезориентированный и слегка бледный супруг внезапно не появляется на пороге их спальни. Радость длится недолго — у мужчины начинаются судороги и множественные кровотечения, а по дороге в больницу машину скорой помощи тормозят военные. Лина приходит в себя на секретной базе рядом с той самой загадочной зоной, куда уже отправлялись многочисленные экспедиции, но вернулся, оказывается, только один человек — её Кейн.

Формат: MKV
Качество: BDRip-HEVC 1080p
Видео: HEVC/H.265, 1920x802, ~3284 Кбит/сек, 10 bit
Аудио 01: AC3, 6 ch, 384 Kbps - Русский (Дубляж, iTunes)
Аудио 02: AC3, 6 ch, 640 Kbps - Русский (MVO, Jaskier)
Аудио 03: AC3, 6 ch, 640 Kbps - Русский (MVO, NewStudio)
Аудио 04: AC3, 6 ch, 384 Kbps - Русский (MVO, HDrezka Studio)
Аудио 05: AC3, 6 ch, 640 Kbps - Украинский (MVO, НеЗупиняйПродакшн)
Аудио 06: AC3, 6 ch, 640 Kbps - Русский (AVO, Яроцкий)
Аудио 07: AC3, 6 ch, 448 Kbps - Русский (AVO, Назаров)
Аудио 08: AC3, 6 ch, 640 Kbps - Английский (Original)

Субтитры: Русские,украинские (Forced),Русские,украинские,английские (Full), Английские (Full, SDH), Английские (Full,SDH-Colored)

Релиз:


[+] Mediainfo
General
Unique ID                      : 261481052386025014660104246531625287940 (0xC4B76B3AEF227D842889CF6252278104)
Complete name                  : D:Download Аннигиляция (2018).mkv
Format                         : Matroska
Format version                 : Version 4
File size                      : 5.47 GiB
Duration                       : 1 h 55 min
Overall bit rate               : 6 788 kb/s
Movie name                     : Аннигиляция / Annihilation (2018)
Encoded date                   : UTC 2019-10-05 04:43:21
Writing application            : mkvmerge v37.0.0 ('Leave It') 64-bit
Writing library                : libebml v1.3.9 + libmatroska v1.5.2
Attachments                    : poster  (1).jpg

Video
ID                             : 1
Format                         : HEVC
Format/Info                    : High Efficiency Video Coding
Format profile                 : Main 10@L4.1@High
Codec ID                       : V_MPEGH/ISO/HEVC
Duration                       : 1 h 55 min
Bit rate                       : 3 284 kb/s
Width                          : 1 920 pixels
Height                         : 802 pixels
Display aspect ratio           : 2.40:1
Frame rate mode                : Constant
Frame rate                     : 23.976 (24000/1001) FPS
Color space                    : YUV
Chroma subsampling             : 4:2:0
Bit depth                      : 10 bits
Bits/(Pixel*Frame)             : 0.089
Stream size                    : 2.64 GiB (48%)
Title                          : Annihilation
Writing library                : x265 2.7+351-d3b714bd5471:[Windows][GCC 8.1.0][64 bit] 10bit
Encoding settings              : cpuid=1111039 / frame-threads=4 / numa-pools=16 / wpp / no-pmode / no-pme / no-psnr / no-ssim / log-level=2 / input-csp=1 / input-res=1920x802 / interlace=0 / total-frames=165445 / level-idc=41 / high-tier=1 / uhd-bd=0 / ref=5 / no-allow-non-conformance / no-repeat-headers / annexb / no-aud / no-hrd / info / hash=0 / no-temporal-layers / open-gop / min-keyint=23 / keyint=240 / gop-lookahead=0 / bframes=8 / b-adapt=2 / b-pyramid / bframe-bias=0 / rc-lookahead=60 / lookahead-slices=4 / scenecut=40 / radl=0 / no-intra-refresh / ctu=64 / min-cu-size=8 / rect / amp / max-tu-size=32 / tu-inter-depth=4 / tu-intra-depth=4 / limit-tu=1 / rdoq-level=2 / dynamic-rd=0.00 / no-ssim-rd / signhide / no-tskip / nr-intra=0 / nr-inter=0 / no-constrained-intra / no-strong-intra-smoothing / max-merge=3 / limit-refs=2 / limit-modes / me=3 / subme=7 / merange=57 / temporal-mvp / weightp / weightb / no-analyze-src-pics / deblock=-3:-3 / no-sao / no-sao-non-deblock / rd=6 / no-early-skip / rskip / no-fast-intra / no-tskip-fast / no-cu-lossless / b-intra / no-splitrd-skip / rdpenalty=0 / psy-rd=2.00 / psy-rdoq=1.00 / no-rd-refine / no-lossless / cbqpoffs=-2 / crqpoffs=-2 / rc=crf / crf=18.0 / qcomp=0.60 / qpstep=4 / stats-write=0 / stats-read=0 / vbv-maxrate=50000 / vbv-bufsize=50000 / vbv-init=0.9 / crf-max=0.0 / crf-min=0.0 / ipratio=1.40 / pbratio=1.30 / aq-mode=1 / aq-strength=1.00 / cutree / zone-count=1 / zones: / start-frame=155707 / end-frame=165445 / qp=35 / no-strict-cbr / qg-size=32 / no-rc-grain / qpmax=69 / qpmin=0 / no-const-vbv / sar=1 / overscan=0 / videoformat=5 / range=0 / colorprim=1 / transfer=1 / colormatrix=1 / chromaloc=0 / display-window=0 / max-cll=0,0 / min-luma=0 / max-luma=1023 / log2-max-poc-lsb=8 / vui-timing-info / vui-hrd-info / slices=1 / no-opt-qp-pps / no-opt-ref-list-length-pps / no-multi-pass-opt-rps / scenecut-bias=0.05 / no-opt-cu-delta-qp / no-aq-motion / no-hdr / no-hdr-opt / no-dhdr10-opt / no-idr-recovery-sei / analysis-reuse-level=5 / scale-factor=0 / refine-intra=0 / refine-inter=0 / refine-mv=0 / no-limit-sao / ctu-info=0 / no-lowpass-dct / refine-mv-type=0 / copy-pic=1 / max-ausize-factor=1.0 / no-dynamic-refine / no-single-sei
Language                       : English
Default                        : Yes
Forced                         : No
Color range                    : Limited
Color primaries                : BT.709
Transfer characteristics       : BT.709
Matrix coefficients            : BT.709

Audio #1
ID                             : 2
Format                         : AC-3
Format/Info                    : Audio Coding 3
Commercial name                : Dolby Digital
Codec ID                       : A_AC3
Duration                       : 1 h 55 min
Bit rate mode                  : Constant
Bit rate                       : 384 kb/s
Channel(s)                     : 6 channels
Channel layout                 : L R C LFE Ls Rs
Sampling rate                  : 48.0 kHz
Frame rate                     : 31.250 FPS (1536 SPF)
Compression mode               : Lossy
Stream size                    : 316 MiB (6%)
Title                          : Дубляж
Language                       : Russian
Service kind                   : Complete Main
Default                        : Yes
Forced                         : Yes

Audio #2
ID                             : 3
Format                         : AC-3
Format/Info                    : Audio Coding 3
Commercial name                : Dolby Digital
Codec ID                       : A_AC3
Duration                       : 1 h 55 min
Bit rate mode                  : Constant
Bit rate                       : 384 kb/s
Channel(s)                     : 6 channels
Channel layout                 : L R C LFE Ls Rs
Sampling rate                  : 48.0 kHz
Frame rate                     : 31.250 FPS (1536 SPF)
Compression mode               : Lossy
Stream size                    : 317 MiB (6%)
Title                          : MVO (Jaskier)
Language                       : Russian
Service kind                   : Complete Main
Default                        : No
Forced                         : No

Audio #3
ID                             : 4
Format                         : AC-3
Format/Info                    : Audio Coding 3
Commercial name                : Dolby Digital
Codec ID                       : A_AC3
Duration                       : 1 h 55 min
Bit rate mode                  : Constant
Bit rate                       : 384 kb/s
Channel(s)                     : 6 channels
Channel layout                 : L R C LFE Ls Rs
Sampling rate                  : 48.0 kHz
Frame rate                     : 31.250 FPS (1536 SPF)
Compression mode               : Lossy
Stream size                    : 317 MiB (6%)
Title                          : MVO (NewStudio)
Language                       : Russian
Service kind                   : Complete Main
Default                        : No
Forced                         : No

Audio #4
ID                             : 5
Format                         : AC-3
Format/Info                    : Audio Coding 3
Commercial name                : Dolby Digital
Codec ID                       : A_AC3
Duration                       : 1 h 55 min
Bit rate mode                  : Constant
Bit rate                       : 192 kb/s
Channel(s)                     : 2 channels
Channel layout                 : L R
Sampling rate                  : 48.0 kHz
Frame rate                     : 31.250 FPS (1536 SPF)
Compression mode               : Lossy
Stream size                    : 159 MiB (3%)
Title                          : MVO (HDRezka Studio)
Language                       : Russian
Service kind                   : Complete Main
Default                        : No
Forced                         : No

Audio #5
ID                             : 6
Format                         : AC-3
Format/Info                    : Audio Coding 3
Commercial name                : Dolby Digital
Codec ID                       : A_AC3
Duration                       : 1 h 55 min
Bit rate mode                  : Constant
Bit rate                       : 640 kb/s
Channel(s)                     : 6 channels
Channel layout                 : L R C LFE Ls Rs
Sampling rate                  : 48.0 kHz
Frame rate                     : 31.250 FPS (1536 SPF)
Compression mode               : Lossy
Stream size                    : 526 MiB (9%)
Title                          : MVO (НеЗупиняйПродакшн)
Language                       : Ukrainian
Service kind                   : Complete Main
Default                        : No
Forced                         : No

Audio #6
ID                             : 7
Format                         : AC-3
Format/Info                    : Audio Coding 3
Commercial name                : Dolby Digital
Codec ID                       : A_AC3
Duration                       : 1 h 55 min
Bit rate mode                  : Constant
Bit rate                       : 448 kb/s
Channel(s)                     : 6 channels
Channel layout                 : L R C LFE Ls Rs
Sampling rate                  : 48.0 kHz
Frame rate                     : 31.250 FPS (1536 SPF)
Compression mode               : Lossy
Stream size                    : 370 MiB (7%)
Title                          : AVO (Яроцкий)
Language                       : Russian
Service kind                   : Complete Main
Default                        : No
Forced                         : No

Audio #7
ID                             : 8
Format                         : AC-3
Format/Info                    : Audio Coding 3
Commercial name                : Dolby Digital
Codec ID                       : A_AC3
Duration                       : 1 h 54 min
Bit rate mode                  : Constant
Bit rate                       : 448 kb/s
Channel(s)                     : 6 channels
Channel layout                 : L R C LFE Ls Rs
Sampling rate                  : 48.0 kHz
Frame rate                     : 31.250 FPS (1536 SPF)
Compression mode               : Lossy
Stream size                    : 368 MiB (7%)
Title                          : AVO (Назаров)
Language                       : Russian
Service kind                   : Complete Main
Default                        : No
Forced                         : No

Audio #8
ID                             : 9
Format                         : AC-3
Format/Info                    : Audio Coding 3
Commercial name                : Dolby Digital
Codec ID                       : A_AC3
Duration                       : 1 h 55 min
Bit rate mode                  : Constant
Bit rate                       : 640 kb/s
Channel(s)                     : 6 channels
Channel layout                 : L R C LFE Ls Rs
Sampling rate                  : 48.0 kHz
Frame rate                     : 31.250 FPS (1536 SPF)
Compression mode               : Lossy
Stream size                    : 526 MiB (9%)
Title                          : Оригинал
Language                       : English
Service kind                   : Complete Main
Default                        : No
Forced                         : No

Text #1
ID                             : 10
Format                         : UTF-8
Codec ID                       : S_TEXT/UTF8
Codec ID/Info                  : UTF-8 Plain Text
Duration                       : 1 h 19 min
Bit rate                       : 0 b/s
Count of elements              : 4
Stream size                    : 61.0 Bytes (0%)
Title                          : Forced
Language                       : Russian
Default                        : Yes
Forced                         : Yes

Text #2
ID                             : 11
Format                         : UTF-8
Codec ID                       : S_TEXT/UTF8
Codec ID/Info                  : UTF-8 Plain Text
Duration                       : 1 h 46 min
Bit rate                       : 59 b/s
Count of elements              : 913
Stream size                    : 46.5 KiB (0%)
Title                          : Focs
Language                       : Russian
Default                        : No
Forced                         : No

Text #3
ID                             : 12
Format                         : UTF-8
Codec ID                       : S_TEXT/UTF8
Codec ID/Info                  : UTF-8 Plain Text
Duration                       : 1 h 46 min
Bit rate                       : 55 b/s
Count of elements              : 920
Stream size                    : 43.3 KiB (0%)
Title                          : Full
Language                       : Russian
Default                        : No
Forced                         : No

Text #4
ID                             : 13
Format                         : UTF-8
Codec ID                       : S_TEXT/UTF8
Codec ID/Info                  : UTF-8 Plain Text
Duration                       : 1 h 19 min
Bit rate                       : 0 b/s
Count of elements              : 4
Stream size                    : 63.0 Bytes (0%)
Title                          : Forced
Language                       : Ukrainian
Default                        : No
Forced                         : No

Text #5
ID                             : 14
Format                         : UTF-8
Codec ID                       : S_TEXT/UTF8
Codec ID/Info                  : UTF-8 Plain Text
Duration                       : 1 h 47 min
Bit rate                       : 54 b/s
Count of elements              : 917
Stream size                    : 42.8 KiB (0%)
Title                          : Full
Language                       : Ukrainian
Default                        : No
Forced                         : No

Text #6
ID                             : 15
Format                         : UTF-8
Codec ID                       : S_TEXT/UTF8
Codec ID/Info                  : UTF-8 Plain Text
Duration                       : 1 h 46 min
Bit rate                       : 33 b/s
Count of elements              : 1011
Stream size                    : 25.9 KiB (0%)
Title                          : Full
Language                       : English
Default                        : No
Forced                         : No

Text #7
ID                             : 16
Format                         : UTF-8
Codec ID                       : S_TEXT/UTF8
Codec ID/Info                  : UTF-8 Plain Text
Duration                       : 1 h 47 min
Bit rate                       : 40 b/s
Count of elements              : 1098
Stream size                    : 32.2 KiB (0%)
Title                          : SDH
Language                       : English
Default                        : No
Forced                         : No

Text #8
ID                             : 17
Format                         : UTF-8
Codec ID                       : S_TEXT/UTF8
Codec ID/Info                  : UTF-8 Plain Text
Duration                       : 1 h 47 min
Bit rate                       : 83 b/s
Count of elements              : 1098
Stream size                    : 66.2 KiB (0%)
Title                          : SDH-Colored
Language                       : English
Default                        : No
Forced                         : No

Menu
00:00:00.000                   : :Chapter 01
00:05:09.309                   : :Chapter 02
00:11:39.156                   : :Chapter 03
00:17:06.692                   : :Chapter 04
00:24:08.655                   : :Chapter 05
00:28:59.446                   : :Chapter 06
00:37:24.242                   : :Chapter 07
00:41:59.517                   : :Chapter 08
00:49:11.448                   : :Chapter 09
00:56:06.404                   : :Chapter 10
01:03:22.298                   : :Chapter 11
01:10:25.011                   : :Chapter 12
01:17:21.928                   : :Chapter 13
01:22:20.477                   : :Chapter 14
01:30:26.295                   : :Chapter 15
01:38:48.589                   : :Chapter 16
01:43:58.357                   : :Chapter 17
01:48:14.279                   : :Chapter 18
01:55:00.184                   : :Chapter 19




Скриншоты:
[+] Всего файлов в раздаче - 1:
Аннигиляция (2018).mkv5.47 GB

Похожие раздачи по запросу - аннигиляция:
2019-10-15 U Doom: Аннигиляция / Doom: Annihilation (2019) WEBRip 1080p | HDRezka Studio 1.35 GB ↑ 286 ↓ 35
2019-10-04 U Doom: Аннигиляция / Doom: Annihilation (2019) BDRip | L 1.46 GB ↑ 548 ↓ 86

Отзывы
Зарегистрируйтесь чтобы добавить комментарий.
Обратная связь
Copyleft ©