↑↓torrent.by
Поиск
Логин: Регистрация
Пароль: Восстановить пароль

Бумажный дом / Money Heist / La Casa de Papel [05x01-05 из 10] (2021) WEB-DL 1080p | LostFilm

Скачать bumazhnyy-dom-money-heist-la-casa-de-papel-05x01-05-iz-10-2021-web-dl-1080p-lostfilm.torrent
U Магнитная ссылка Размер: 9.47 GB Раздают: 40 Качают: 16 Добавлен: 2021-09-15 06:07:39
Бумажный дом / Money Heist / La Casa de Papel [05x01-05 из 10] (2021) WEB-DL 1080p | LostFilm

Название: Бумажный дом
Оригинальное название: Money Heist / La Casa de Papel
Год выпуска: 2021
Жанр:  боевик, триллер, криминал, детектив
Режиссер: Хесус Кольменар, Алекс Родриго, Алехандро Бассано
В ролях: Альваро Морте, Урсула Корберо, Альба Флорес, Пако Тоус, Педро Алонсо, Ициар Итуньо, Мигель Эрран, Хайме Лорэнте, Эстер Асебо, Энрике Арсе

О фильме:
Действие первого и второго сезонов разворачивается в Мадриде, где таинственный человек, называющий себя Профессором, собирает группу из восьми преступников. Каждый из них мечтает начать новую жизнь или бежит от чего-то. Взяв себе кодовые имена в честь известных городов, авантюристы приступают к реализации самого отчаянного плана по ограблению Испанского королевского монетного двора. Их задача заключается в том, чтобы тайно проникнуть в государственное учреждение, не привлекая особого внимания, взять в заложники всех находящихся в здании людей, а дальше действовать строго по плану, однако все оказывается не так просто.

Захватив монетный двор в маскировочных красных костюмах и в масках художника Сальвадора Дали, авантюристы намереваются на протяжении одиннадцати дней печатать деньги на сумму около трех миллиардов евро. Однако казавшийся гениальным план Профессора начинает «трещать по швам», так как одному из заложников удается спрятать мобильный телефон. Позднее выясняется, что за бандой грабителей следят профессионалы своего дела — элитные полицейские, которых не так-то просто одурачить. Несмотря на все сложности и недочеты в плане, главным героям удается выйти живыми из монетного двора с нужной суммой денег.

Отлежавшись «на дне», команда встречается вновь и на этот раз планирует ограбление Банка Испании. Это грандиозное преступление показано в третьем и четвертом сезонах, последних из которых заканчивается неожиданным арестом Профессора.

Страна:  Испания
Продолжительность: ~00:49:00
Перевод: Профессиональный (многоголосый закадровый) LostFilm

Файл
Формат: MKV
Качество: WEB-DL 1080p
Видео: 1920x1080 at 24.000 fps, MPEG-4 AVC, ~2891 kbps avg
Аудио#1: Russian: 48 kHz, AC3, 2/0 (L,R) ch, ~384.00 kbps avg
Аудио#2: Spanish: 48 kHz, E-AC3, 3/2 (L,C,R,l,r) + LFE ch, ~768.00 kbps avg
Аудио#3: English: 48 kHz, E-AC3, 3/2 (L,C,R,l,r) + LFE ch, ~768.00 kbps avg
Субтитры: русские(Netflix), английские (SDH)

Реклама отсутствует
Без заставки и логотипа
Релиз: kogesan


[+] Список серий
01. Конец дороги
02. Ты веришь в реинкарнацию?
03. Добро пожаловать на величайшее таинство жизни
04. Твое место в раю
05. Тебя ждет много жизней

06. Episode#6 -- ОЖИДАЕТСЯ 3 декабря



[+] MediaInfo
Общее
Уникальный идентификатор                 : 306926665035270849245567463751465744662 (0xE6E7ECED0F1D485780EF502CCA5AB916)
Полное имя                               : La.Casa.de.Papel.S05.WEBDL.1080p.Rus.Spa.EngMoney.Heist.S05E01.WEBDL.1080p.mkv
Формат                                   : Matroska
Версия формата                           : Version 4
Размер файла                             : 1,66 Гбайт
Продолжительность                        : 49 м. 24 с.
Режим общего битрейта                    : Переменный
Общий поток                              : 4 814 Кбит/сек
Дата кодирования                         : UTC 2021-09-05 20:58:35
Программа кодирования                    : mkvmerge v61.0.0 ('So') 64-bit
Библиотека кодирования                   : libebml v1.4.2 + libmatroska v1.6.4

Видео
Идентификатор                            : 1
Формат                                   : AVC
Формат/Информация                        : Advanced Video Codec
Профиль формата                          : Main@L4
Настройки формата                        : CABAC / 3 Ref Frames
Параметр CABAC формата                   : Да
Параметр RefFrames формата               : 3 кадра
Идентификатор кодека                     : V_MPEG4/ISO/AVC
Продолжительность                        : 49 м. 24 с.
Вид битрейта                             : Переменный
Битрейт                                  : 2 891 Кбит/сек
Номинальный битрейт                      : 2 214 Кбит/сек
Максимальный битрейт                     : 5 745 Кбит/сек
Ширина                                   : 1 920 пикселей
Высота                                   : 1 080 пикселей
Соотношение сторон                       : 16:9
Режим частоты кадров                     : Постоянный
Частота кадров                           : 24,000 кадра/сек
Цветовое пространство                    : YUV
Субдискретизация насыщенности            : 4:2:0
Битовая глубина                          : 8 бит
Тип развёртки                            : Прогрессивная
Бит/(Пиксели*Кадры)                      : 0.058
Размер потока                            : 1 022 Мбайт (60%)
Библиотека кодирования                   : x264 core 148 r2722 1b0121b
Настройки программы                      : cabac=1 / ref=3 / deblock=1:0:0 / analyse=0x1:0x111 / me=umh / subme=10 / psy=1 / psy_rd=1.00:0.00 / mixed_ref=1 / me_range=24 / chroma_me=1 / trellis=2 / 8x8dct=0 / cqm=0 / deadzone=21,11 / fast_pskip=1 / chroma_qp_offset=-2 / threads=8 / lookahead_threads=1 / sliced_threads=0 / nr=0 / decimate=1 / interlaced=0 / bluray_compat=0 / stitchable=1 / constrained_intra=0 / bframes=2 / b_pyramid=0 / b_adapt=2 / b_bias=0 / direct=3 / weightb=1 / open_gop=0 / weightp=2 / keyint=250 / keyint_min=24 / scenecut=0 / intra_refresh=0 / rc_lookahead=48 / rc=2pass / mbtree=1 / bitrate=2214 / ratetol=1.0 / qcomp=0.50 / qpmin=6 / qpmax=51 / qpstep=4 / cplxblur=20.0 / qblur=0.5 / vbv_maxrate=5745 / vbv_bufsize=7660 / nal_hrd=vbr / filler=0 / ip_ratio=1.40 / aq=1:1.00
Язык                                     : Spanish
Default                                  : Да
Forced                                   : Нет

Аудио #1
Идентификатор                            : 2
Формат                                   : AC-3
Формат/Информация                        : Audio Coding 3
Коммерческое название                    : Dolby Digital
Идентификатор кодека                     : A_AC3
Продолжительность                        : 49 м. 24 с.
Вид битрейта                             : Постоянный
Битрейт                                  : 384 Кбит/сек
Каналы                                   : 2 канала
Channel layout                           : L R
Частота                                  : 48,0 КГц
Частота кадров                           : 31,250 кадров/сек (1536 SPF)
Метод сжатия                             : С потерями
Размер потока                            : 136 Мбайт (8%)
Заголовок                                : LF
Язык                                     : Russian
Service kind                             : Complete Main
Default                                  : Да
Forced                                   : Нет

Аудио #2
Идентификатор                            : 3
Формат                                   : E-AC-3 JOC
Формат/Информация                        : Enhanced AC-3 with Joint Object Coding
Коммерческое название                    : Dolby Digital Plus with Dolby Atmos
Идентификатор кодека                     : A_EAC3
Продолжительность                        : 49 м. 24 с.
Вид битрейта                             : Постоянный
Битрейт                                  : 768 Кбит/сек
Каналы                                   : 6 каналов
Channel layout                           : L R C LFE Ls Rs
Частота                                  : 48,0 КГц
Частота кадров                           : 31,250 кадров/сек (1536 SPF)
Метод сжатия                             : С потерями
Размер потока                            : 271 Мбайт (16%)
Заголовок                                : Spa
Язык                                     : Spanish
Service kind                             : Complete Main
Default                                  : Нет
Forced                                   : Нет
Complexity index                         : 16
Number of dynamic objects                : 15
Bed channel count                        : 1 канал
Bed channel configuration                : LFE

Аудио #3
Идентификатор                            : 4
Формат                                   : E-AC-3 JOC
Формат/Информация                        : Enhanced AC-3 with Joint Object Coding
Коммерческое название                    : Dolby Digital Plus with Dolby Atmos
Идентификатор кодека                     : A_EAC3
Продолжительность                        : 49 м. 24 с.
Вид битрейта                             : Постоянный
Битрейт                                  : 768 Кбит/сек
Каналы                                   : 6 каналов
Channel layout                           : L R C LFE Ls Rs
Частота                                  : 48,0 КГц
Частота кадров                           : 31,250 кадров/сек (1536 SPF)
Метод сжатия                             : С потерями
Размер потока                            : 271 Мбайт (16%)
Заголовок                                : Eng
Язык                                     : English
Service kind                             : Complete Main
Default                                  : Нет
Forced                                   : Нет
Complexity index                         : 16
Number of dynamic objects                : 15
Bed channel count                        : 1 канал
Bed channel configuration                : LFE

Текст #1
Идентификатор                            : 5
Формат                                   : UTF-8
Идентификатор кодека                     : S_TEXT/UTF8
Идентификатор кодека/Информация          : UTF-8 Plain Text
Продолжительность                        : 47 м. 9 с.
Битрейт                                  : 98 бит/сек
Count of elements                        : 661
Размер потока                            : 34,2 Кбайт (0%)
Заголовок                                : Rus
Язык                                     : Russian
Default                                  : Нет
Forced                                   : Нет

Текст #2
Идентификатор                            : 6
Формат                                   : UTF-8
Идентификатор кодека                     : S_TEXT/UTF8
Идентификатор кодека/Информация          : UTF-8 Plain Text
Продолжительность                        : 44 м. 45 с.
Битрейт                                  : 73 бит/сек
Count of elements                        : 662
Размер потока                            : 24,0 Кбайт (0%)
Заголовок                                : Eng
Язык                                     : English
Default                                  : Нет
Forced                                   : Нет

Текст #3
Идентификатор                            : 7
Формат                                   : UTF-8
Идентификатор кодека                     : S_TEXT/UTF8
Идентификатор кодека/Информация          : UTF-8 Plain Text
Продолжительность                        : 45 м. 39 с.
Битрейт                                  : 83 бит/сек
Count of elements                        : 804
Размер потока                            : 28,1 Кбайт (0%)
Заголовок                                : SDH
Язык                                     : English
Default                                  : Нет
Forced                                   : Нет



Скриншоты:
[+] Всего файлов в раздаче - 5:
Money.Heist.S05E01.WEBDL.1080p.RGzsRutracker.mkv1.66 GB
Money.Heist.S05E02.WEBDL.1080p.RGzsRutracker.mkv1.87 GB
Money.Heist.S05E03.WEBDL.1080p.RGzsRutracker.mkv1.72 GB
Money.Heist.S05E04.WEBDL.1080p.RGzsRutracker.mkv1.87 GB
Money.Heist.S05E05.WEBDL.1080p.RGzsRutracker.mkv2.35 GB

Показать еще раздачи по запросу бумажный:
2021-09-14 U Бумажный дом / Money Heist / La Casa de Papel [01-05x01-43 из 48] (2017-2021) WEB-DLRip | Пифагор, LostFilm 24.39 GB ↑ 21 ↓ 73
2021-09-10 U Бумажный дом / Money Heist / La Casa de Papel [05x01-02 из 10] (2021) WEB-DL 1080p | LostFilm 3.53 GB ↑ 21 ↓ 12
2021-09-06 U Бумажный дом / Money Heist / La Casa de Papel [05x01 из 10] (2021) WEB-DL 1080p | LostFilm 1.66 GB ↑ 36 ↓ 5
2021-09-03 U Бумажный дом / Сезон: 5 / Серии: 1-5 из 10 [2021 WEB-DL 1080p] 12.53 GB ↑ 130 ↓ 184
2021-09-03 U Бумажный дом / Money Heist / La Casa de Papel [05x01-05 из 10] (2021) WEB-DL 1080p | Пифагор 8.78 GB ↑ 386 ↓ 267
2021-09-01 U Бумажный дом / Money Heist / La Casa de Papel [S01-04] (2017-2020) WEB-DLRip | Пифагор, LostFilm 21.25 GB ↑ 24 ↓ 10
2021-05-22 U Бумажный дом / Money Heist / La Casa de Papel [S01-04] (2017-2020) WEB-DLRip | TVShows 28.34 GB ↑ 265 ↓ 175

Отзывы
Зарегистрируйтесь чтобы добавить комментарий.
Загрузите программу
  byTorrent
Обратная связь
Copyleft ©