↑↓torrent.by
Поиск
Логин: Регистрация
Пароль: Восстановить пароль

Патриот [02х01-18 из 20] (2021) WEBRip 720p

Скачать patriot-02h01-18-iz-20-2021-webrip-720p.torrent
U Магнитная ссылка Размер: 8.96 GB Раздают: 42 Качают: 42 Добавлен: 2021-09-15 06:07:44
Патриот [02х01-18 из 20] (2021) WEBRip 720p

Название: Патриот
Год выхода: 2021
Жанр: Комедия
Режиссер: Николай Бурлак
В ролях: Антон Жижин, Айсулу Азимбаева, Алёна Савастова, Алексей Базанов, Анастасия Талызина, Владимир Сычёв, Дмитрий Журавлёв (IV), Владимир Афанасьев (II), Валентина Лукащук, Юлианна Михневич, Никита Тарасов, Георгий Бергал, Григорий Дудник, Евгения Капралова, Антон Риваль, Галина Петрова, Дмитрий Ломакин, Анастасия Шаповалова (II), Манана Гогитидзе, Виктор Конухин, Демид Авдонин, Сергей Лобынцев, Дмитрий Грачёв (II), Михаил Шкамаридин, Марина Донец, Дария Ермакович, Юрий Шелковников

О фильме:
Саня приезжает домой из академии ФСБ вместе с товарищем по учебе. Этот «товарищ» оказывается девушкой Айзой, которая по физическим характеристикам даже превосходит Кучина. Был один патриот – стало два патриота. Жена главного героя Катя в бешенстве, она не понимает, что происходит. Саня верит в «братскую» дружбу между мужчиной и женщиной, Катя хочет избавиться от этого «товарища», а тем временем Ленка запустила свой мелкий бизнес с продукцией для знаменитостей и хочет быстрее выплатить отцу остатки долга за свою учёбу. Вдобавок на плечи главного героя сваливаются заботы о магазине, потому что его хозяин внезапно отъехал в больничку. Патриот остается за главного!

Страна: Россия
Студия: Good Story Media
Продолжительность: 18 х ~ 00:25:00
Язык: Русский

Премьера: 30 августа 2021 года (ТНТ)
Примечание: Без рекламы
Версия 18+

Файл
Формат: MKV
Качество: WEBRip 720p
Видео: MPEG-4 AVC, ~ 3000 Кбит/с, 1280x608
Звук: AC3, 2 ch, 192 Кбит/с
Субтитры: Отсутствуют
Семпл


[+] MI
Общее
Уникальный идентификатор                 : 135289616411278141578966773620268858245 (0x65C7D5144EA932E7F1B17251223FFB85)
Полное имя                               : D:Patriot.S02.2021.WEB-DL.720p1.Patriot.S02.2021.WEB-DL.720p.mkv
Формат                                   : Matroska
Версия формата                           : Version 4
Размер файла                             : 522 Мбайт
Продолжительность                        : 23 м. 24 с.
Режим общего битрейта                    : Переменный
Общий поток                              : 3 117 Кбит/сек
Название фильма                          : 01.Patriot.S02.2021.WEB-DL.720p
Дата кодирования                         : UTC 2021-08-30 17:31:35
Программа кодирования                    : mkvmerge v60.0.0 ('Are We Copies?') 64-bit
Библиотека кодирования                   : libebml v1.4.2 + libmatroska v1.6.4
Attachments                              : poster.jpg

Видео
Идентификатор                            : 1
Формат                                   : AVC
Формат/Информация                        : Advanced Video Codec
Профиль формата                          : High@L3.1
Настройки формата                        : CABAC / 1 Ref Frames
Параметр CABAC формата                   : Да
Параметр RefFrames формата               : 1 кадр
Параметр GOP формата                     : M=1, N=50
Идентификатор кодека                     : V_MPEG4/ISO/AVC
Продолжительность                        : 23 м. 24 с.
Вид битрейта                             : Переменный
Битрейт                                  : 2 922 Кбит/сек
Максимальный битрейт                     : 3 000 Кбит/сек
Ширина                                   : 1 280 пикселей
Высота                                   : 608 пикселей
Соотношение сторон                       : 2,088
Соотношение сторон в оригинале           : 2,087
Режим частоты кадров                     : Постоянный
Частота кадров                           : 25,000 кадров/сек
Цветовое пространство                    : YUV
Субдискретизация насыщенности            : 4:2:0
Битовая глубина                          : 8 бит
Тип развёртки                            : Прогрессивная
Бит/(Пиксели*Кадры)                      : 0.150
Размер потока                            : 489 Мбайт (94%)
Default                                  : Да
Forced                                   : Нет

Аудио
Идентификатор                            : 2
Формат                                   : AC-3
Формат/Информация                        : Audio Coding 3
Коммерческое название                    : Dolby Digital
Идентификатор кодека                     : A_AC3
Продолжительность                        : 23 м. 24 с.
Вид битрейта                             : Постоянный
Битрейт                                  : 192 Кбит/сек
Каналы                                   : 2 канала
Channel layout                           : L R
Частота                                  : 48,0 КГц
Частота кадров                           : 31,250 кадров/сек (1536 SPF)
Метод сжатия                             : С потерями
Размер потока                            : 32,2 Мбайт (6%)
Service kind                             : Complete Main
Default                                  : Да
Forced                                   : Нет



Скриншоты:
[+] Всего файлов в раздаче - 18:
13.Patriot.S02.2021.WEB-DL.720p.mkv423.62 MB
08.Patriot.S02.2021.WEB-DL.720p.mkv461.50 MB
02.Patriot.S02.2021.WEB-DL.720p.mkv463.23 MB
14.Patriot.S02.2021.WEB-DL.720p.mkv472.57 MB
12.Patriot.S02.2021.WEB-DL.720p.mkv497.18 MB
18.Patriot.S02.2021.WEB-DL.720p.mkv507.03 MB
04.Patriot.S02.2021.WEB-DL.720p.mkv514.16 MB
05.Patriot.S02.2021.WEB-DL.720p.mkv519.21 MB
16.Patriot.S02.2021.WEB-DL.720p.mkv520.00 MB
01.Patriot.S02.2021.WEB-DL.720p.mkv521.98 MB
03.Patriot.S02.2021.WEB-DL.720p.mkv522.73 MB
11.Patriot.S02.2021.WEB-DL.720p.mkv523.77 MB
10.Patriot.S02.2021.WEB-DL.720p.mkv526.79 MB
15.Patriot.S02.2021.WEB-DL.720p.mkv531.10 MB
17.Patriot.S02.2021.WEB-DL.720p.mkv531.32 MB
07.Patriot.S02.2021.WEB-DL.720p.mkv533.85 MB
09.Patriot.S02.2021.WEB-DL.720p.mkv550.03 MB
06.Patriot.S02.2021.WEB-DL.720p.mkv554.05 MB

Показать еще раздачи по запросу патриот:
Вчера U Патриот [S01-02 + Фильм о фильме] (2020-2021) WEBRip-AVC от Generalfilm | КПК 3.85 GB ↑ 75 ↓ 77
Вчера U Патриот [S02 + Фильм о фильме] (2021) WEBRip 6.15 GB ↑ 23 ↓ 55
2021-09-18 U Патриот [S02] (2021) WEBRip от Files-x 5.64 GB ↑ 45 ↓ 79
2021-09-18 U Патриот [S02 + Фильм о фильме] (2021) WEBRip 720p 10.45 GB ↑ 145 ↓ 166
2021-09-17 U Патриот [S02] (2021) SATRip-AVC 5.14 GB ↑ 198 ↓ 463
2021-09-17 U Патриот [S02] (2021) WEBRip 720p 9.97 GB ↑ 72 ↓ 192
2021-09-17 U Патриот [S02] (2021) WEBRip-AVC от Files-х 5.73 GB ↑ 19 ↓ 57

Отзывы
Зарегистрируйтесь чтобы добавить комментарий.
Загрузите программу
  byTorrent
Обратная связь
Copyleft ©