↑↓Torrent.by
Поиск
Логин: Регистрация
Пароль: Восстановить пароль
Загрузка...

Эбигейл (2019) WEB-DLRip-AVC от ExKinoRay | iTunes

Скачать ebigeyl-2019-web-dlrip-avc-ot-exkinoray-itunes.torrent
U Магнитная ссылка Размер: 745.48 MB Раздают: 94 Качают: 41 Добавлен: 2019-10-06 14:42:38
Эбигейл (2019) WEB-DLRip-AVC от ExKinoRay | iTunes

Название: Эбигейл
Год выхода: 2019
Жанр:  Приключения, фэнтези, семейный
Режиссер: Александр Богуславский
В ролях: Тинатин Далакишвили, Риналь Мухаметов, Артём Ткаченко, Равшана Куркова, Никита Дювбанов, Сергей Горошко, Глеб Бочков, Эдди Марсан, Оливье Сиу, Ксения Кутепова, Петар Зекавица, Марта Тимофеева, Сесиль Плеже

О фильме:
Молодая девушка Эбигейл живет в городе, границы которого закрыли много лет назад из-за эпидемии загадочной болезни. Отец Эбби был одним из заболевших - и его забрали, когда ей было шесть лет. Пойдя наперекор властям, чтобы разыскать отца, Эбби узнает о том, что ее город на самом деле полон магии. И в ней самой пробуждаются необыкновенные магические способности...

Страна: Россия
Студия: KD Studios
Продолжительность: 01:46:16
Язык: Русский

Файл
Формат: MKV
Качество: WEB-DLRip-AVC
Видео: MPEG-4 AVC, 768x320, - 903 Кбит/с
Аудио:  AAC-HE, 2 ch, - 76 Кбит/с
Субтитры: Нет


[+] MI
Общее
Уникальный идентификатор : 270443004532749349696534648704270771393 (0xCB756D95DCC0D8DBF9D42A02B6AEA4C1)
Полное имя : D:MOVIESAbigail.2019.WEB-DLRip-AVC.ExKinoRay.mkv
Формат : Matroska
Версия формата : Version 4 / Version 2
Размер файла : 745 Мбайт
Продолжительность : 1 ч. 46 м.
Общий поток : 981 Кбит/сек
Дата кодирования : UTC 2019-10-06 05:38:09
Программа кодирования : mkvmerge v35.0.0 ('All The Love In The World') 64-bit
Библиотека кодирования : libebml v1.3.9 + libmatroska v1.5.2

Видео
Идентификатор : 1
Формат : AVC
Формат/Информация : Advanced Video Codec
Профиль формата : High@L4.1
Параметр CABAC формата : Да
Параметр RefFrames формата : 12 кадров
Идентификатор кодека : V_MPEG4/ISO/AVC
Продолжительность : 1 ч. 46 м.
Битрейт : 903 Кбит/сек
Ширина : 768 пикселей
Высота : 320 пикселей
Соотношение сторон : 2,40:1
Режим частоты кадров : Постоянный
Частота кадров : 23,976 (24000/1001) кадра/сек
Цветовое пространство : YUV
Субдискретизация насыщенности : 4:2:0
Битовая глубина : 8 бит
Тип развёртки : Прогрессивная
Бит/(Пиксели*Кадры) : 0.153
Размер потока : 686 Мбайт (92%)
Библиотека кодирования : x264 core 152 r2851 ba24899
Настройки программы : cabac=1 / ref=12 / deblock=1:-3:-3 / analyse=0x3:0x133 / me=umh / subme=11 / psy=1 / psy_rd=1.00:0.11 / mixed_ref=1 / me_range=32 / chroma_me=1 / trellis=2 / 8x8dct=1 / cqm=0 / deadzone=21,11 / fast_pskip=0 / chroma_qp_offset=-3 / threads=6 / lookahead_threads=1 / sliced_threads=0 / nr=0 / decimate=0 / interlaced=0 / bluray_compat=0 / constrained_intra=0 / bframes=12 / b_pyramid=2 / b_adapt=2 / b_bias=0 / direct=3 / weightb=1 / open_gop=0 / weightp=2 / keyint=240 / keyint_min=23 / scenecut=40 / intra_refresh=0 / rc=2pass / mbtree=0 / bitrate=903 / ratetol=1.0 / qcomp=0.60 / qpmin=0 / qpmax=69 / qpstep=4 / cplxblur=20.0 / qblur=0.5 / ip_ratio=1.40 / pb_ratio=1.30 / aq=1:1.00
Default : Да
Forced : Нет

Аудио
Идентификатор : 2
Формат : AAC
Формат/Информация : Advanced Audio Codec
Профиль формата : HE-AAC / LC
Идентификатор кодека : A_AAC
Продолжительность : 1 ч. 46 м.
Битрейт : 76,0 Кбит/сек
Каналы : 2 канала
Расположение каналов : Front: L R
Частота : 48,0 КГц / 24,0 КГц
Частота кадров : 23,438 кадра/сек (1024 SPF)
Метод сжатия : С потерями
Задержка видео : 31 мс.
Размер потока : 57,8 Мбайт (8%)
Default : Да
Forced : Нет

Меню
00:00:00.000 : ru:1
00:03:49.000 : ru:2
00:13:26.000 : ru:3
00:22:22.000 : ru:4
00:30:47.000 : ru:5
00:39:40.000 : ru:6
00:50:22.000 : ru:7
01:00:15.000 : ru:8
01:10:39.000 : ru:9
01:21:18.000 : ru:10
01:30:58.000 : ru:11
01:42:38.000 : ru:12



Скриншоты:
[+] Всего файлов в раздаче - 1:
Abigail.2019.WEB-DLRip-AVC.ExKinoRay.mkv745.48 MB

Похожие раздачи по запросу - эбигейл:
2019-10-09 U Эбигейл (2019) WEB-DLRip от Scarabey | iTunes 1.44 GB ↑ 74 ↓ 16
2019-10-03 U Эбигейл (2019) WEB-DLRip-AVC от OlLanDGroup | iTunes 1К1.59 GB ↑ 266 ↓ 97
2019-10-03 U Эбигейл (2019) WEB-DL 1080p | iTunes 3.64 GB ↑ 1355 ↓ 587
2019-10-03 U Эбигейл (2019) WEB-DLRip от MegaPeer | iTunes 1.46 GB ↑ 371 ↓ 175

Отзывы
Зарегистрируйтесь чтобы добавить комментарий.
Обратная связь
Copyleft ©