↑↓Torrent.by
Поиск
Логин: Регистрация
Пароль: Восстановить пароль
Загрузка...

Галапагосские острова 3D / Faszination Galapagos (2012) BDRemux [H.264/1080p]

Скачать galapagosskie-ostrova-3d-faszination-galapagos-2012-bdremux-h-264-1080p.torrent
U Магнитная ссылка Размер: 10.73 GB Раздают: 1 Качают: 4 Добавлен: 2019-10-07 07:39:34

Галапагосские острова 3D / Faszination Galapagos (2012) BDRemux [H.264/1080p]
Производство: Германия, Los Banditos Films
Жанр: Документальный, природа, путешествия

Режиссер: Бенжамин Ичер, Тимо Дж. Мэйер

Описание:
Посетите с нами этот маленький, неповторимый архипелаг в Тихом океане, 1000 км перед восточным берегом Южной Америки. Он выглядит захватывающе таинственно и даже иногда нереально, так как кажется, что из-за вулканического происхождения жизнь на нем невозможна. Все же при ближайшем рассмотрении архипелаг изобилует жизнью. Примерно 40 % самых различных видов животных обитают только здесь и поэтому находятся под защитой

https://www.imdb.com/title/tt2309770/?ref_=plg_rt_1

Релиз от: Remux boba88
Продолжительность: 00:54:23
Качество видео: BDRemux
Перевод: Дублированный
Субтитры: Русские

Видео: AVC/H.264, 1920x1080, ~23,9 Mbps
Аудио#1: DTS-HD MA, 6 ch, 1927 kbps, (Core 1509 Kbps) | Русский
Аудио#2: AC3, 6 ch, 384 Kbps | Русский
Аудио#3: DTS-HD MA, 6 ch, 1958 kbps, (Core 1509 Kbps) | Английский
[+] "Mediainfo:"

Общее
Уникальный идентификатор : 180771754035769660641471548224944965640 (0x87FF5F986EC9335A57C5A107A9338808)
Полное имя : F:\КИНО\GALAPAGOS__3D_2D_BDRemux.mkv
Формат : Matroska
Версия формата : Version 4
Размер файла : 10,7 Гбайт
Продолжительность : 54 м. 23 с.
Режим общего битрейта : Переменный
Общий поток : 28,2 Мбит/сек
Название фильма : GALAPAGOS__3D_2D_BDRemux boba88
Дата кодирования : UTC 2019-10-06 23:18:43
Программа кодирования : mkvmerge v38.0.0 ('The Silent Type') 64-bit
Библиотека кодирования : libebml v1.3.9 + libmatroska v1.5.2

Видео
Идентификатор : 1
Формат : AVC
Формат/Информация : Advanced Video Codec
Профиль формата : High@L4.1
Настройки формата : CABAC / 4 Ref Frames
Параметр CABAC формата : Да
Параметр RefFrames формата : 4 кадра
Идентификатор кодека : V_MPEG4/ISO/AVC
Продолжительность : 54 м. 23 с.
Вид битрейта : Переменный
Битрейт : 23,9 Мбит/сек
Максимальный битрейт : 32,0 Мбит/сек
Ширина : 1920 пикселей
Высота : 1080 пикселей
Соотношение сторон : 16:9
Режим частоты кадров : Постоянный
Частота кадров : 23,976 (24000/1001) кадра/сек
Стандарт вещания : NTSC
Цветовое пространство : YUV
Субдискретизация насыщенности : 4:2:0
Битовая глубина : 8 бит
Тип развёртки : Прогрессивная
Бит/(Пиксели*Кадры) : 0.482
Размер потока : 9,10 Гбайт (85%)
Default : Да
Forced : Нет
Цветовой диапазон : Limited
Основные цвета : BT.709
Характеристики трансфера : BT.709
Коэффициенты матрицы : BT.709

Аудио #1
Идентификатор : 2
Формат : DTS XLL
Формат/Информация : Digital Theater Systems
Коммерческое название : DTS-HD Master Audio
Идентификатор кодека : A_DTS
Продолжительность : 54 м. 23 с.
Вид битрейта : Переменный
Битрейт : 1927 Кбит/сек
Каналы : 6 каналов
ChannelLayout : C L R Ls Rs LFE
Частота : 48,0 КГц
Частота кадров : 93,750 кадра/сек (512 SPF)
Битовая глубина : 16 бит
Метод сжатия : Без потерь
Размер потока : 750 Мбайт (7%)
Язык : Russian
Default : Да
Forced : Да

Аудио #2
Идентификатор : 3
Формат : AC-3
Формат/Информация : Audio Coding 3
Коммерческое название : Dolby Digital
Идентификатор кодека : A_AC3
Продолжительность : 54 м. 23 с.
Вид битрейта : Постоянный
Битрейт : 384 Кбит/сек
Каналы : 6 каналов
ChannelLayout : L R C LFE Ls Rs
Частота : 48,0 КГц
Частота кадров : 31,250 кадров/сек (1536 SPF)
Метод сжатия : С потерями
Размер потока : 149 Мбайт (1%)
Язык : Russian
ServiceKind/String : Complete Main
Default : Нет
Forced : Нет

Аудио #3
Идентификатор : 4
Формат : DTS XLL
Формат/Информация : Digital Theater Systems
Коммерческое название : DTS-HD Master Audio
Идентификатор кодека : A_DTS
Продолжительность : 54 м. 23 с.
Вид битрейта : Переменный
Битрейт : 1958 Кбит/сек
Каналы : 6 каналов
ChannelLayout : C L R Ls Rs LFE
Частота : 48,0 КГц
Частота кадров : 93,750 кадра/сек (512 SPF)
Битовая глубина : 16 бит
Метод сжатия : Без потерь
Размер потока : 762 Мбайт (7%)
Язык : English
Default : Нет
Forced : Нет

Текст
Идентификатор : 5
Формат : PGS
Режим смешивания : zlib
Идентификатор кодека : S_HDMV/PGS
Идентификатор кодека/Информация : Picture based subtitle format used on BDs/HD-DVDs
Продолжительность : 53 м. 58 с.
Битрейт : 24,9 Кбит/сек
ElementCount : 566
Размер потока : 9,61 Мбайт (0%)
Язык : Russian
Default : Да
Forced : Нет

[+] "Дополнительная информация:"
Только 2D!


Скриншоты:
     
[+] Всего файлов в раздаче - 1:
GALAPAGOS__3D_2D_BDRemux.mkv10.73 GB

Отзывы
Зарегистрируйтесь чтобы добавить комментарий.
Обратная связь
Copyleft ©