↑↓Torrent.by
Поиск
Логин: Регистрация
Пароль: Восстановить пароль

Гори, гори ясно / Brightburn (2019) BDRip 720p от селезень | D, P | Лицензия

Скачать gori-yasno-brightburn-2019-bdrip-720p-ot-selezen-d-p-licenziya.torrent
U Магнитная ссылка Размер: 4.34 GB Раздают: 57 Качают: 25 Добавлен: 2019-10-07 12:15:48
Гори, гори ясно / Brightburn (2019) BDRip 720p от селезень | D, P | Лицензия

Название: Гори, гори ясно
Оригинальное название: Brightburn
Год выхода: 2019
Жанр: Ужасы, фантастика, триллер, драма
Режиссер: Дэвид Яровески
В ролях: Элизабет Бэнкс, Джексон А. Данн, Дэвид Денман, Дженнифер Холлэнд, Мэтт Джонс, Мередит Хагнер, Бекки Уолстром, Грегори Алан Уильямс, Стив Эйджи, Эмми Хантер

О фильме: Семейная пара фермеров Тори и Кайл уже долго и безуспешно пытаются завести ребёнка, когда вдруг из космоса в близлежащий лес падает капсула с младенцем. Пара усыновляет малыша и растит его как своего собственного сына. Брэндон растёт послушным, хорошо учится в школе и никогда не болеет. Но по достижении 12 лет характер мальчика резко меняется — он начинает дерзить родителям, и в нём просыпаются незнакомые доселе желания и способности.

Страна: США
Студия: The H Collective
Продолжительность: 01:30:30
Перевод(ы):
#1: Дублированный | Лицензия
#2: Профессиональный многоголосый | СВ Студия

Качество: BDRip 720p
Видео: MPEG-4 AVC, 1280x536, 5000 Kbit/s, 23.976 fps
Звук:
Аудио #01: 48 kHz, AC3, 5.1, 640 Kbps | Лицензия | RUS |
Аудио #02: 48 kHz, AC3, 2.0, 192 Kbps | СВ Студия | RUS |
Аудио #03: 48 kHz, AC3, 5.1, 384 Kbps | iTunes | UKR |
Аудио #04: 48 kHz, AC3, 5.1, 640 Kbps | Оригинал |  ENG |
Субтитры: Русские (Forced, full), украинские (Full), английские

Релиз:


[+] MI
General
Unique ID                   : 323223041437043082596703988044505818370 (0xF32A7E50E6A9F18FFFC18254DDF42502)
Complete name               : D:Video111Brightburn.2019.Lic.BDRip.720p.seleZen.mkv
Format                      : Matroska
Format version              : Version 4
File size                   : 4.34 GiB
Duration                    : 1 h 30 min
Overall bit rate            : 6 859 kb/s
Movie name                  : Brightburn 2019 from селезень
Encoded date                : UTC 2019-10-06 14:21:22
Writing application         : mkvmerge v22.0.0 ('At The End Of The World') 64-bit
Writing library             : libebml v1.3.5 + libmatroska v1.4.8

Video
ID                          : 1
Format                      : AVC
Format/Info                 : Advanced Video Codec
Format profile              : High@L4.1
Format settings             : CABAC / 12 Ref Frames
Format settings, CABAC      : Yes
Format settings, Reference  : 12 frames
Codec ID                    : V_MPEG4/ISO/AVC
Duration                    : 1 h 30 min
Bit rate                    : 5 000 kb/s
Width                       : 1 280 pixels
Height                      : 536 pixels
Display aspect ratio        : 2.40:1
Frame rate mode             : Constant
Frame rate                  : 23.976 (24000/1001) FPS
Color space                 : YUV
Chroma subsampling          : 4:2:0
Bit depth                   : 8 bits
Scan type                   : Progressive
Bits/(Pixel*Frame)          : 0.304
Stream size                 : 3.16 GiB (73%)
Title                       : seleZen
Writing library             : x264 core 148 r2705kMod 3f5ed56
Encoding settings           : cabac=1 / ref=12 / deblock=1:-2:-2 / analyse=0x3:0x133 / me=umh / subme=10 / psy=1 / fade_compensate=0.00 / psy_rd=1.20:0.06 / mixed_ref=1 / me_range=24 / chroma_me=1 / trellis=2 / 8x8dct=1 / cqm=0 / deadzone=21,11 / fast_pskip=0 / chroma_qp_offset=-3 / threads=12 / lookahead_threads=2 / sliced_threads=0 / nr=0 / decimate=0 / interlaced=0 / bluray_compat=0 / constrained_intra=0 / fgo=0 / bframes=8 / b_pyramid=2 / b_adapt=2 / b_bias=0 / direct=3 / weightb=1 / open_gop=0 / weightp=2 / keyint=240 / keyint_min=23 / scenecut=40 / intra_refresh=0 / rc_lookahead=50 / rc=2pass / mbtree=0 / bitrate=5000 / ratetol=1.0 / qcomp=0.60 / qpmin=0 / qpmax=51 / qpstep=4 / cplxblur=20.0 / qblur=0.5 / vbv_maxrate=50000 / vbv_bufsize=62500 / nal_hrd=none / filler=0 / ip_ratio=1.40 / pb_ratio=1.30 / aq=3:0.80
Language                    : English
Default                     : Yes
Forced                      : No

Audio #1
ID                          : 2
Format                      : AC-3
Format/Info                 : Audio Coding 3
Commercial name             : Dolby Digital
Codec ID                    : A_AC3
Duration                    : 1 h 30 min
Bit rate mode               : Constant
Bit rate                    : 640 kb/s
Channel(s)                  : 6 channels
Channel layout              : L R C LFE Ls Rs
Sampling rate               : 48.0 kHz
Frame rate                  : 31.250 FPS (1536 SPF)
Bit depth                   : 16 bits
Compression mode            : Lossy
Stream size                 : 414 MiB (9%)
Title                       : Dub [License]
Language                    : Russian
Service kind                : Complete Main
Default                     : Yes
Forced                      : Yes

Audio #2
ID                          : 3
Format                      : AC-3
Format/Info                 : Audio Coding 3
Commercial name             : Dolby Digital
Codec ID                    : A_AC3
Duration                    : 1 h 30 min
Bit rate mode               : Constant
Bit rate                    : 192 kb/s
Channel(s)                  : 2 channels
Channel layout              : L R
Sampling rate               : 48.0 kHz
Frame rate                  : 31.250 FPS (1536 SPF)
Bit depth                   : 16 bits
Compression mode            : Lossy
Stream size                 : 124 MiB (3%)
Title                       : MVO [СВ Студия]
Language                    : Russian
Service kind                : Complete Main
Default                     : No
Forced                      : No

Audio #3
ID                          : 4
Format                      : AC-3
Format/Info                 : Audio Coding 3
Commercial name             : Dolby Digital
Codec ID                    : A_AC3
Duration                    : 1 h 30 min
Bit rate mode               : Constant
Bit rate                    : 384 kb/s
Channel(s)                  : 6 channels
Channel layout              : L R C LFE Ls Rs
Sampling rate               : 48.0 kHz
Frame rate                  : 31.250 FPS (1536 SPF)
Bit depth                   : 16 bits
Compression mode            : Lossy
Stream size                 : 249 MiB (6%)
Title                       : Dub
Language                    : Ukrainian
Service kind                : Complete Main
Default                     : No
Forced                      : No

Audio #4
ID                          : 5
Format                      : AC-3
Format/Info                 : Audio Coding 3
Commercial name             : Dolby Digital
Codec ID                    : A_AC3
Duration                    : 1 h 30 min
Bit rate mode               : Constant
Bit rate                    : 640 kb/s
Channel(s)                  : 6 channels
Channel layout              : L R C LFE Ls Rs
Sampling rate               : 48.0 kHz
Frame rate                  : 31.250 FPS (1536 SPF)
Bit depth                   : 16 bits
Compression mode            : Lossy
Stream size                 : 414 MiB (9%)
Title                       : Original
Language                    : English
Service kind                : Complete Main
Default                     : No
Forced                      : No

Text #1
ID                          : 6
Format                      : UTF-8
Codec ID                    : S_TEXT/UTF8
Codec ID/Info               : UTF-8 Plain Text
Duration                    : 1 h 29 min
Bit rate                    : 0 b/s
Count of elements           : 11
Stream size                 : 620 Bytes (0%)
Title                       : Forced
Language                    : Russian
Default                     : Yes
Forced                      : Yes

Text #2
ID                          : 7
Format                      : UTF-8
Codec ID                    : S_TEXT/UTF8
Codec ID/Info               : UTF-8 Plain Text
Duration                    : 1 h 29 min
Bit rate                    : 61 b/s
Count of elements           : 895
Stream size                 : 40.1 KiB (0%)
Title                       : Full
Language                    : Russian
Default                     : No
Forced                      : No

Text #3
ID                          : 8
Format                      : UTF-8
Codec ID                    : S_TEXT/UTF8
Codec ID/Info               : UTF-8 Plain Text
Duration                    : 1 h 24 min
Bit rate                    : 61 b/s
Count of elements           : 892
Stream size                 : 38.3 KiB (0%)
Title                       : Full
Language                    : Ukrainian
Default                     : No
Forced                      : No

Text #4
ID                          : 9
Format                      : UTF-8
Codec ID                    : S_TEXT/UTF8
Codec ID/Info               : UTF-8 Plain Text
Duration                    : 1 h 27 min
Bit rate                    : 44 b/s
Count of elements           : 1036
Stream size                 : 28.2 KiB (0%)
Title                       : Full
Language                    : English
Default                     : No
Forced                      : No

Menu
00:00:00.000                : en:00:00:00.000
00:03:20.700                : en:00:03:20.700
00:07:04.633                : en:00:07:04.633
00:12:30.792                : en:00:12:30.792
00:17:47.066                : en:00:17:47.066
00:24:23.170                : en:00:24:23.170
00:30:28.910                : en:00:30:28.910
00:38:06.784                : en:00:38:06.784
00:43:11.672                : en:00:43:11.672
00:49:25.796                : en:00:49:25.796
00:56:53.535                : en:00:56:53.535
01:00:12.359                : en:01:00:12.359
01:05:22.127                : en:01:05:22.127
01:08:16.092                : en:01:08:16.092
01:12:20.586                : en:01:12:20.586
01:17:28.894                : en:01:17:28.894



Скриншоты:
[+] Всего файлов в раздаче - 1:
Brightburn.2019.Lic.BDRip.720p.seleZen.mkv4.34 GB

Показать еще раздачи по запросу гори:
2019-10-07 U Гори, гори ясно / Brightburn (2019) BDRip от MegaPeer | Лицензия 1.46 GB ↑ 78 ↓ 17
2019-09-30 U Гори, гори ясно / Brightburn (2019) BDRip от MegaPeer | iTunes 1.42 GB ↑ 550 ↓ 49
2019-08-15 U Гори, гори ясно / Brightburn (2019) BDRip 1080p от селезень | D, P | iTunes 7.63 GB ↑ 294 ↓ 159
2019-08-07 U Гори, гори ясно / Brightburn (2019) WEB-DLRip-AVC от ExKinoRay | D, P 745.95 MB ↑ 74 ↓ 12
2019-08-07 U Гори, гори ясно / Brightburn (2019) WEB-DL 720p | iTunes 2.22 GB ↑ 253 ↓ 54
2019-08-07 U Гори, гори ясно / Brightburn (2019) WEB-DL 1080p | D, P 4.86 GB ↑ 276 ↓ 60
2019-06-27 U Гори, гори ясно / Brightburn (2019) WEBRip 1080p | СВ Студия 10.91 GB ↑ 250 ↓ 101

Отзывы
Зарегистрируйтесь чтобы добавить комментарий.
Обратная связь
Copyleft ©