↑↓Torrent.by
Поиск
Логин: Регистрация
Пароль: Восстановить пароль

Рассмеши комика [16x01] / Розсміши коміка (2019) WEBRip от GeneralFilm

Скачать rassmeshi-komika-16x01-rozsm-shi-kom-ka-2019-webrip-ot-generalfilm.torrent
U Магнитная ссылка Размер: 556.88 MB Раздают: 61 Качают: 4 Добавлен: 2019-10-07 12:16:15
Рассмеши комика [16x01] / Розсміши коміка (2019) WEBRip от GeneralFilm

Название: Рассмеши комика
Оригинальное название: Розсміши коміка
Год выпуска: 2019
Жанр:  ТВ-Шоу, юмористическое шоу
Выпущено: Украина, Квартал 95
Режиссер: Студия «Квартал 95»
В ролях: Игорь Ласточкин, Евгений Кошевой, Юрий Ткач

О фильме: Рассмеши комика 2019 новый формат -теперь участники будут стараться заработать деньги уже не для себя, а чтобы помочь людям, которые в них нуждаются.

Качество: WEBRip
Видео: XviD build 73, 720x400 (16:9), 25.000 fps, ~ 1500 Kbps (~ 0.210 bit/pixel)
Аудио: 48.0 kHz, AC3, 2/0 ch, 192 kbps
Продолжительность: 1 x ~ 00:44:00
Перевод: Не требуется (русский, украинский)
Cубтитры: нет

Релиз:
[+] MediaInfo
General
Complete name               : D:RazdachiRassmeshi.Komika.s16.2019.WEBRip.GeneralFilmVypusk.s16.e01.avi
Format                      : AVI
Format/Info                 : Audio Video Interleave
File size                   : 557 MiB
Duration                    : 46 min 13 s
Overall bit rate            : 1 684 kb/s
Writing application         : VirtualDubMod 1.5.10.3 | www.virtualdub-fr.org || (build 2550/release)
Writing library             : VirtualDubMod build 2550/release

Video
ID                          : 0
Format                      : MPEG-4 Visual
Format profile              : Advanced Simple@L5
Format settings             : BVOP1 / Custom Matrix
Format settings, BVOP       : 1
Format settings, QPel       : No
Format settings, GMC        : No warppoints
Format settings, Matrix     : Custom
Codec ID                    : XVID
Codec ID/Hint               : XviD
Duration                    : 46 min 13 s
Bit rate                    : 1 483 kb/s
Width                       : 720 pixels
Height                      : 400 pixels
Display aspect ratio        : 16:9
Frame rate                  : 25.000 FPS
Color space                 : YUV
Chroma subsampling          : 4:2:0
Bit depth                   : 8 bits
Scan type                   : Progressive
Compression mode            : Lossy
Bits/(Pixel*Frame)          : 0.206
Stream size                 : 490 MiB (88%)
Writing library             : XviD 73

Audio
ID                          : 1
Format                      : AC-3
Format/Info                 : Audio Coding 3
Commercial name             : Dolby Digital
Codec ID                    : 2000
Duration                    : 46 min 13 s
Bit rate mode               : Constant
Bit rate                    : 192 kb/s
Channel(s)                  : 2 channels
Channel layout              : L R
Sampling rate               : 48.0 kHz
Frame rate                  : 31.250 FPS (1536 SPF)
Bit depth                   : 16 bits
Compression mode            : Lossy
Stream size                 : 63.5 MiB (11%)
Alignment                   : Split accross interleaves
Interleave, duration        : 40  ms (1.00 video frame)
Interleave, preload duratio : 500  ms
Service kind                : Complete Main



Скриншоты:
[+] Всего файлов в раздаче - 1:
Vypusk.s16.e01.avi556.88 MB

Отзывы
375447124728
Зеля,Мишка и Шепелев лучшее что было с этим шоу

Зарегистрируйтесь чтобы добавить комментарий.
Обратная связь
Copyleft ©