↑↓Torrent.by
Поиск
Логин: Регистрация
Пароль: Восстановить пароль
Загрузка...

Последнее испытание (2018) WEB-DLRip | iTunes

Скачать poslednee-ispytanie-2018-web-dlrip-itunes.torrent
U Магнитная ссылка Размер: 706.95 MB Раздают: 76 Качают: 21 Добавлен: 2019-10-08 09:32:43
Последнее испытание (2018) WEB-DLRip | iTunes

Название: Последнее испытание
Год выхода: 2018
Жанр: Драма, боевик
Страна: Россия
Перевод: Не требуется
Продолжительность: 02:18:03
Режиссер: Алексей А. Петрухин
В ролях: Ирина Купченко, Ирина Алферова, Андрей Мерзликин, Анна Чурина, Елена Захарова, Иван Кокорин, Беслан Терекбаев, Алиса Гребенщикова, Михаил Евланов, Игорь Жижикин и др.

О фильме: Основано на реальных событиях. Фильм посвящен освобождению заложников в московском театральном центре на Дубровке осенью 2002 года. На сцене, где должна была пройти премьера мюзикла, разыгралась драма… Люди шли на праздник — веселый, яркий, а оказались лицом к лицу со смертью. Они, ставшие заложниками, сумевшие пройти страшное испытание, сохранив человеческое достоинство и мужество — обычные люди, ставшие героями…

Файл
Формат: AVI
Качество: WEB-DLRip
Видео: 688x288 (2.39:1), 24.000 fps, XviD build 50 ~578 kbps avg, 0.12 bit/pixel
Звук: 48 kHz, MPEG Layer 3, 2 ch, ~128.00 kbps avg | iTunes
Субтитры: нет


[+] MI
Общее
Полное имя: C:PosledneeIspytanieWEBDLRip.740.mb.avi
Формат: AVI
Формат/Информация: Audio Video Interleave
Размер файла: 707 Мбайт
Продолжительность: 2 ч. 18 м.
Общий поток: 716 Кбит/сек
Программа кодирования: VirtualDubMod 1.5.10.3 | (build 2550/release)
Библиотека кодирования: VirtualDubMod build 2550/release

Видео
Идентификатор: 0
Формат: MPEG-4 Visual
Профиль формата: Advanced Simple@L5
Параметр BVOP формата: 1
Параметр QPel формата: Нет
Параметр GMC формата: Без точки перехода
Параметр матрицы формата: Default (H.263)
Идентификатор кодека: DX50
Идентификатор кодека/Подсказка: DivX 5
Продолжительность: 2 ч. 18 м.
Битрейт: 579 Кбит/сек
Ширина: 688 пикселей
Высота: 288 пикселей
Соотношение сторон: 2,40:1
Частота кадров: 24,000 кадра/сек
Цветовое пространство: YUV
Субдискретизация насыщенности: 4:2:0
Битовая глубина: 8 бит
Тип развёртки: Прогрессивная
Метод сжатия: С потерями
Бит/(Пиксели*Кадры): 0.122
Размер потока: 571 Мбайт (81%)
Библиотека кодирования: XviD 1.2.1 (UTC 2008-12-04)

Аудио
Идентификатор: 1
Формат: MPEG Audio
Версия формата: Version 1
Профиль формата: Layer 3
Идентификатор кодека: 55
Идентификатор кодека/Подсказка: MP3
Продолжительность: 2 ч. 18 м.
Вид битрейта: Постоянный
Битрейт: 128 Кбит/сек
Каналы: 2 канала
Частота: 48,0 КГц
Метод сжатия: С потерями
Размер потока: 126 Мбайт (18%)
Выравнивание: Соединение по промежуткам
Продолжительность промежутка: 42 мс. (1,00 видеокадр)
Время предзагрузки промежутка: 504 мс.
Библиотека кодирования: LAME3.99r
Настройки программы: -m s -V 4 -q 2 -lowpass 17 -b 128



Скриншоты:
[+] Всего файлов в раздаче - 1:
PosledneeIspytanieWEBDLRip.740.mb.avi706.95 MB

Показать еще раздачи по запросу последнее:
2019-10-14 U Последнее желание / Desire (1993) DVDRip | A 1.42 GB ↑ 50 ↓ 16
2019-10-06 U Последнее испытание (2018) WEB-DLRip от Scarabey | iTunes 1.45 GB ↑ 93 ↓ 46
2019-10-06 U Последнее испытание (2018) WEB-DLRip-AVC от Files-x | iTunes 2.04 GB ↑ 63 ↓ 11
2019-10-03 U Последнее испытание (2018) WEB-DL 1080p | iTunes 4.77 GB ↑ 533 ↓ 131
2019-10-02 U Последнее испытание (2018) WEB-DLRip | iTunes 1.45 GB ↑ 557 ↓ 346
2019-08-19 U Академик Николай Левашов - «Последнее обращение к человечеству» [2000, PDF] 382.82 MB ↑ 1 ↓ 4
2019-03-01 U Последнее похмелье / The Last Hangover (2018) WEBRip 720p | LakeFilms 856.93 MB ↑ 38 ↓ 13

Отзывы
Зарегистрируйтесь чтобы добавить комментарий.
Обратная связь
Copyleft ©