↑↓Torrent.by
Поиск
Логин: Регистрация
Пароль: Восстановить пароль
Загрузка...

СеняФедя [03х01-03] (2019) SATRip от Files-x

Скачать senyafedya-03h01-03-2019-satrip-ot-files-x.torrent
U Магнитная ссылка Размер: 898.09 MB Раздают: 122 Качают: 53 Добавлен: 2019-10-09 05:02:10
СеняФедя [03х01-03] (2019) SATRip от Files-x

Оригинальное название: #СеняФедя
Год выхода: 2019
Жанр: Комедия
Режиссер: Юрий Владовский
В ролях: Сергей Лавыгин, Михаил Тарабукин, Дмитрий Нагиев, Анна Бегунова, Ирина Серова, Юлия Сулес

О фильме:
По сюжету Максим Галкин отказывается вести корпоратив компании Марины (Анна Бегунова), поэтому жена Сени (Сергей Лавыгин) срочно ищет новую кандидатуру. Федя (Михаил Тарабукин) обещает договориться с бывшим боссом Дмитрием Нагиевым, но тот не берёт трубку. Чтобы спасти корпоратив и Марину от увольнения, друзья решают найти двойника шоумена. Казалось бы, план отличный, только на празднике появляется друг Нагиева, который узнаёт о подмене и рассказывает о махинациях самому актёру.

Страна: Россия
Студия: PICK UP FILM по заказу телеканала СТС, Кинокомпания "Сок"
Продолжительность: 3 х 00:25:00
Перевод: Не требуется

Файл
Кодек: XviD
Качество: SATRip
Видео: XviD, ~ 1516 Кбит/с, 720x400, 25 кадр/с
Звук: AC3, 2 ch, 192 Кбит/с

Релиз:


[+] MediaInfo

General
Complete name: C:24.#СеняФедя.s03.E01.(2019).SATRip.by.Nicodem.Files-x.avi
Format: AVI
Format/Info: Audio Video Interleave
File size: 299 MiB
Duration: 24mn 22s
Overall bit rate: 1 718 Kbps
Writing application: VirtualDubMod 1.5.10.3 | www.virtualdub-fr.org || (build 2550/release)
Writing library: VirtualDubMod build 2550/release

Video
ID: 0
Format: MPEG-4 Visual
Format profile: Advanced Simple@L5
Format settings, BVOP: 1
Format settings, QPel: No
Format settings, GMC: No warppoints
Format settings, Matrix: Custom
Codec ID: XVID
Codec ID/Hint: XviD
Duration: 24mn 22s
Bit rate: 1 516 Kbps
Width: 720 pixels
Height: 400 pixels
Display aspect ratio: 16:9
Frame rate: 25.000 fps
Color space: YUV
Chroma subsampling: 4:2:0
Bit depth: 8 bits
Scan type: Progressive
Compression mode: Lossy
Bits/(Pixel*Frame): 0.211
Stream size: 264 MiB (88%)
Writing library: XviD 73

Audio
ID: 1
Format: AC-3
Format/Info: Audio Coding 3
Mode extension: CM (complete main)
Codec ID: 2000
Duration: 24mn 22s
Bit rate mode: Constant
Bit rate: 192 Kbps
Channel(s): 2 channels
Channel positions: Front: L R
Sampling rate: 48.0 KHz
Bit depth: 16 bits
Compression mode: Lossy
Stream size: 33.5 MiB (11%)
Alignment: Split accross interleaves
Interleave, duration: 40 ms (1.00 video frame)
Interleave, preload duration: 500 ms



Скриншоты:
[+] Всего файлов в раздаче - 3:
26.СеняФедя.s03.E03.(2019).SATRip.by.Nicodem.Files-x.avi299.02 MB
24.СеняФедя.s03.E01.(2019).SATRip.by.Nicodem.Files-x.avi299.46 MB
25.СеняФедя.s03.E02.(2019).SATRip.by.Nicodem.Files-x.avi299.61 MB

Показать еще раздачи по запросу сеняфедя:
Вчера U СеняФедя [03х01-08] (2019) SATRip от Files-x 2.34 GB ↑ 63 ↓ 107
2019-10-17 U СеняФедя [03х01-07] (2019) SATRip от Files-x 2.05 GB ↑ 59 ↓ 99
2019-10-16 U СеняФедя [03х01-06 из 12] (2019) WEB-DL 1080p от ExKinoRay 5.22 GB ↑ 32 ↓ 47
2019-10-15 U СеняФедя [03х01-06] (2019) SATRip от Files-x 1.75 GB ↑ 76 ↓ 225
2019-10-10 U СеняФедя [03х01-05] (2019) SATRip от Files-x 1.46 GB ↑ 214 ↓ 383
2019-10-10 U СеняФедя [03х01-04] (2019) WEB-DL 720p от Files-x 2.17 GB ↑ 46 ↓ 89
2019-10-10 U СеняФедя [03х01-04] (2019) SATRip от Files-x 1.17 GB ↑ 123 ↓ 82

Отзывы
Зарегистрируйтесь чтобы добавить комментарий.
Обратная связь
Copyleft ©