↑↓Torrent.by
Поиск
Логин: Регистрация
Пароль: Восстановить пароль
Загрузка...

Марлина, убийца в четырёх актах / Marlina si pembunuh dalam empat babak (2017) HDRip | HDRezka Studio

Скачать marlina-ubiyca-v-chetyreh-aktah-si-pembunuh-dalam-empat-babak-2017-hdrip-hdrezka-studio.torrent
U Магнитная ссылка Размер: 1.46 GB Раздают: 84 Качают: 14 Добавлен: 2019-10-09 05:02:40
Марлина, убийца в четырёх актах / Marlina si pembunuh dalam empat babak (2017) HDRip | HDRezka Studio

Марлина, убийца в четырёх актах / Marlina the Murderer in Four Acts / Marlina si pembunuh dalam empat babak

Страна: Индонезия  Франция  Малайзия  Таиланд
Производство: Cinesurya Pictures
Год выпуска: 2017
Жанр:  драма, криминал
Продолжительность: 01:33:23

Режиссер: Моули Суря
В ролях: Марша Тимоти, Эги Федли, Йога Пратма, Яю А.В. Унру, Рули Лубис, Дэа Панэндра

Описание: Пустынная местность беднейшего индонезийского острова. Молодая вдова Марлина становится жертвой разбойного нападения и изнасилования. Однако месть не заставляет себя долго ждать: разъярённая женщина на месте расправляется с обидчиками, одного из них даже лишает головы. В поисках справедливости в сопровождении призрака обезглавленной жертвы Марлина отправляется в полицию...

Перевод: Профессиональный (многоголосый, закадровый) | HDRezka Studio
Субтитры: отдельным файлом / английские

Качество: HDRip
Формат: AVI
Видео кодек: XviD
Аудио кодек: АС3
Видео: 720x304 (2.35:1), 24.000 fps, XviD build 73 ~1 840 kbps avg
Аудио №1: 48.0 kHz, AC3 Dolby Digital, 2/0 (L,R) ch, ~192 kbps | RUS
Аудио №2: 48.0 kHz, AC3 Dolby Digital, 2/0 (L,R) ch, ~192 kbps | IND
Формат субтитров: *SRT

Дата премьеры (мир): 24 мая 2017

Релиз от: порошков


[+] Media Info
General
Формат                                   : AVI
Формат/Информация                        : Audio Video Interleave
Размер файла                             : 1,46 Гбайт
Продолжительность                        : 1 ч. 33 м.
Общий поток                              : 2238 Кбит/сек
Название фильма                          : Марлина, убийца в четырёх актах_2017_HDRip
Программа кодирования                    : VirtualDubMod 1.5.10.3 | (build 2550/release)
Авторское право                          : порошков

Видео
Идентификатор                            : 0
Формат                                   : MPEG-4 Visual
Профиль формата                          : Advanced Simple@L5
Настройки формата                        : BVOP1 / Custom Matrix
Параметр BVOP формата                    : 1
Параметр QPel формата                    : Нет
Параметр GMC формата                     : Без точки перехода
Параметр матрицы формата                 : Выборочная
Идентификатор кодека                     : XVID
Идентификатор кодека/Подсказка           : XviD
Продолжительность                        : 1 ч. 33 м.
Битрейт                                  : 1840 Кбит/сек
Ширина                                   : 720 пикселей
Высота                                   : 304 пикселя
Соотношение сторон                       : 2,35:1
Частота кадров                           : 24,000 кадра/сек
Цветовое пространство                    : YUV
Субдискретизация насыщенности            : 4:2:0
Битовая глубина                          : 8 бит
Тип развёртки                            : Прогрессивная
Метод сжатия                             : С потерями
Бит/(Пиксели*Кадры)                      : 0.350
Размер потока                            : 1,20 Гбайт (82%)
Библиотека кодирования                   : XviD 73

Аудио #1
Идентификатор                            : 1
Формат                                   : AC-3
Формат/Информация                        : Audio Coding 3
Коммерческое название                    : Dolby Digital
Идентификатор кодека                     : 2000
Продолжительность                        : 1 ч. 33 м.
Вид битрейта                             : Постоянный
Битрейт                                  : 192 Кбит/сек
Каналы                                   : 2 канала
ChannelLayout                            : L R
Частота                                  : 48,0 КГц
Частота кадров                           : 31,250 кадров/сек (1536 SPF)
Метод сжатия                             : С потерями
Размер потока                            : 128 Мбайт (9%)
Выравнивание                             : Разделение по промежуткам
Продолжительность промежутка             : 42  мс. (1,00 видеокадр)
Время предзагрузки промежутка            : 500  мс.
Заголовок                                : Rus

Аудио #2
Идентификатор                            : 2
Формат                                   : AC-3
Формат/Информация                        : Audio Coding 3
Коммерческое название                    : Dolby Digital
Идентификатор кодека                     : 2000
Продолжительность                        : 1 ч. 33 м.
Вид битрейта                             : Постоянный
Битрейт                                  : 192 Кбит/сек
Каналы                                   : 2 канала
ChannelLayout                            : L R
Частота                                  : 48,0 КГц
Частота кадров                           : 31,250 кадров/сек (1536 SPF)
Метод сжатия                             : С потерями
Размер потока                            : 128 Мбайт (9%)
Выравнивание                             : Разделение по промежуткам
Продолжительность промежутка             : 42  мс. (1,00 видеокадр)
Время предзагрузки промежутка            : 500  мс.
Заголовок                                : Ind



Скриншоты:
[+] Всего файлов в раздаче - 2:
Марлина, убийца в четырёх актах_2017_HDRip.avi1.46 GB
Марлина, убийца в четырёх актах_2017_HDRip.srt31.73 kB

Похожие раздачи по запросу - марлина:
2019-10-09 U Марлина, убийца в четырёх актах / Marlina si pembunuh dalam empat babak (2017) BDRip 1080p | HDRezka Studio 6.61 GB ↑ 68 ↓ 12

Отзывы
Зарегистрируйтесь чтобы добавить комментарий.
Обратная связь
Copyleft ©