↑↓Torrent.by
Поиск
Логин: Регистрация
Пароль: Восстановить пароль
Загрузка...

Марлина, убийца в четырёх актах / Marlina si pembunuh dalam empat babak (2017) BDRip 1080p | HDRezka Studio

Скачать marlina-ubiyca-v-chetyreh-aktah-si-pembunuh-dalam-empat-babak-2017-bdrip-1080p-hdrezka-studio.torrent
U Магнитная ссылка Размер: 6.61 GB Раздают: 68 Качают: 12 Добавлен: 2019-10-09 05:02:52
Марлина, убийца в четырёх актах / Marlina si pembunuh dalam empat babak (2017) BDRip 1080p | HDRezka Studio

Марлина, убийца в четырёх актах / Marlina the Murderer in Four Acts / Marlina si pembunuh dalam empat babak

Страна: Индонезия  Франция  Малайзия  Таиланд
Производство: Cinesurya Pictures
Год выпуска: 2017
Жанр:  драма, криминал
Продолжительность: 01:33:23

Режиссер: Моули Суря
В ролях: Марша Тимоти, Эги Федли, Йога Пратма, Яю А.В. Унру, Рули Лубис, Дэа Панэндра

Описание: Пустынная местность беднейшего индонезийского острова. Молодая вдова Марлина становится жертвой разбойного нападения и изнасилования. Однако месть не заставляет себя долго ждать: разъярённая женщина на месте расправляется с обидчиками, одного из них даже лишает головы. В поисках справедливости в сопровождении призрака обезглавленной жертвы Марлина отправляется в полицию...

Перевод: Профессиональный (многоголосый, закадровый) | HDRezka Studio
Субтитры: английские

Качество: BDRip 1080p
Формат: MKV
Видео кодек: AVC
Аудио кодек: АС3 | DTS
Видео: 1920x804 (2.40:1), 24.000 fps, MPEG-4 AVC ~8 431 kbps avg
Аудио №1: 48.0 kHz, AC3 Dolby Digital, 2/0 (L,R) ch, ~192 kbps | RUS / HDRezka Studio
Аудио №2: 48.0 kHz, Digital Theater Systems, 3/2 (L,C,R,l,r) + LFE ch, ~1509 kbps | IND
Формат субтитров: UTF-8 Plain Text

Дата премьеры (мир): 24 мая 2017


[+] Media Info
General
Unique ID                                : 135429965958857569947186680999702956030 (0x65E2DCD8A54B7D9F4B558162C32807FE)
Complete name                            : Marlina.the.Murderer.in.Four.Acts.2018.BDRip.1080p.mkv
Format                                   : Matroska
Format version                           : Version 4 / Version 2
File size                                : 6.61 GiB
Duration                                 : 1 h 33 min
Overall bit rate                         : 10.1 Mb/s
Movie name                               : CHD
Encoded date                             : UTC 2019-10-04 23:54:35
Writing application                      : mkvmerge v20.0.0 ('I Am The Sun') 64-bit
Writing library                          : libebml v1.3.5 + libmatroska v1.4.8

Video
ID                                       : 1
Format                                   : AVC
Format/Info                              : Advanced Video Codec
Format profile                           : High@L4.1
Format settings                          : CABAC / 4 Ref Frames
Format settings, CABAC                   : Yes
Format settings, RefFrames               : 4 frames
Codec ID                                 : V_MPEG4/ISO/AVC
Duration                                 : 1 h 33 min
Bit rate                                 : 8 431 kb/s
Width                                    : 1 920 pixels
Height                                   : 804 pixels
Display aspect ratio                     : 2.40:1
Frame rate mode                          : Constant
Frame rate                               : 24.000 FPS
Color space                              : YUV
Chroma subsampling                       : 4:2:0
Bit depth                                : 8 bits
Scan type                                : Progressive
Bits/(Pixel*Frame)                       : 0.228
Stream size                              : 5.50 GiB (83%)
Writing library                          : x264 core 155 r2867+74 66b5600 t_mod_Custom_2 [8-bit@all X86_64]
Encoding settings                        : cabac=1 / ref=4 / deblock=1:-3:-3 / analyse=0x3:0x113 / me=umh / subme=10 / psy=1 / fade_compensate=0.00 / psy_rd=0.90:0.10 / mixed_ref=1 / me_range=48 / chroma_me=1 / trellis=2 / 8x8dct=1 / cqm=0 / deadzone=21,11 / fast_pskip=0 / chroma_qp_offset=-2 / threads=12 / lookahead_threads=2 / sliced_threads=0 / nr=0 / decimate=1 / interlaced=0 / bluray_compat=0 / constrained_intra=0 / fgo=0 / bframes=8 / b_pyramid=2 / b_adapt=2 / b_bias=0 / direct=3 / weightb=1 / open_gop=0 / weightp=2 / keyint=250 / keyint_min=24 / scenecut=40 / intra_refresh=0 / rc_lookahead=40 / rc=crf / mbtree=0 / crf=20.0000 / qcomp=0.70 / qpmin=0:0:0 / qpmax=69:69:69 / qpstep=4 / vbv_maxrate=35000 / vbv_bufsize=35000 / crf_max=0.0 / nal_hrd=none / filler=0 / ip_ratio=1.40 / pb_ratio=1.30 / aq=3:0.90 / aq-sensitivity=10.00 / aq-factor=1.00:1.00:1.00 / aq2=0 / aq3=2:[0.50:0.50]:[0.50:0.50]:[0.50:0.50]:[0.50:0.50] / aq3-sensitivity=10.00 / aq3-factor=[1.00:1.00]:[1.00:1.00]:[1.00:1.00] / aq3-boundary=192:64:24
Language                                 : English
Default                                  : Yes
Forced                                   : No
Color range                              : Limited
Matrix coefficients                      : BT.709

Audio #1
ID                                       : 2
Format                                   : AC-3
Format/Info                              : Audio Coding 3
Codec ID                                 : A_AC3
Duration                                 : 1 h 33 min
Bit rate mode                            : Constant
Bit rate                                 : 192 kb/s
Channel(s)                               : 2 channels
Channel positions                        : Front: L R
Sampling rate                            : 48.0 kHz
Frame rate                               : 31.250 FPS (1536 SPF)
Bit depth                                : 16 bits
Compression mode                         : Lossy
Stream size                              : 128 MiB (2%)
Title                                    : MVO HDrezka Studio
Language                                 : Russian
Service kind                             : Complete Main
Default                                  : Yes
Forced                                   : No

Audio #2
ID                                       : 3
Format                                   : DTS
Format/Info                              : Digital Theater Systems
Codec ID                                 : A_DTS
Duration                                 : 1 h 33 min
Bit rate mode                            : Constant
Bit rate                                 : 1 509 kb/s
Channel(s)                               : 6 channels
Channel positions                        : Front: L C R, Side: L R, LFE
Sampling rate                            : 48.0 kHz
Frame rate                               : 93.750 FPS (512 SPF)
Bit depth                                : 24 bits
Compression mode                         : Lossy
Stream size                              : 1 008 MiB (15%)
Language                                 : Indonesian
Default                                  : No
Forced                                   : No

Text
ID                                       : 4
Format                                   : UTF-8
Codec ID                                 : S_TEXT/UTF8
Codec ID/Info                            : UTF-8 Plain Text
Duration                                 : 1 h 23 min
Bit rate                                 : 17 b/s
Count of elements                        : 538
Stream size                              : 10.8 KiB (0%)
Language                                 : English
Default                                  : No
Forced                                   : No



Скриншоты:
[+] Всего файлов в раздаче - 1:
Marlina.the.Murderer.in.Four.Acts.2018.BDRip.1080p.mkv6.61 GB

Похожие раздачи по запросу - марлина:
2019-10-09 U Марлина, убийца в четырёх актах / Marlina si pembunuh dalam empat babak (2017) HDRip | HDRezka Studio 1.46 GB ↑ 84 ↓ 14

Отзывы
Зарегистрируйтесь чтобы добавить комментарий.
Обратная связь
Copyleft ©