↑↓Torrent.by
Поиск
Логин: Регистрация
Пароль: Восстановить пароль
Загрузка...

Триада [01-08 из 16] (2019) HDTV 1080i от ExKinoRay

Скачать triada-01-08-iz-16-2019-hdtv-1080i-ot-exkinoray.torrent
U Магнитная ссылка Размер: 8.49 GB Раздают: 32 Качают: 75 Добавлен: 2019-10-09 07:28:38
Триада [01-08 из 16] (2019) HDTV 1080i от  ExKinoRay

Оригинальное название: Триада
Год выхода: 2019
Жанр: Комедия
Режиссер: Дмитрий Дьяченко
В ролях: Борис Дергачёв, Дарья Мороз, Любовь Аксёнова, Анастасия Калашникова, Александр Пташенчук, Инга Оболдина, Кирилл Полухин, Тимофей Трибунцев, Владислав Ветров, Елена Шевченко

О фильме:
Толя никак не может выбрать между любовницей и женой, с которой у них много лет не получается родить ребенка. Лучший друг советует ему переспать с танцовщицей в клубе и понять, перед какой из любящих женщин ему будет стыдно. Толя решает последовать совету… и через несколько недель все три женщины сообщают Толе, что у него будет ребенок… Ну то есть три ребенка… Одновременно! Вместо того чтобы провалиться сквозь землю, Толя принимает ответственное, но очень спорное решение. Несмотря ни на что он хочет остаться любящим отцом для каждого из троих детей. Поэтому Толя собирает всю триаду и объявляет, что все три матери должны непременно жить вместе с ним под одной крышей.

Страна: Россия
Студия: Comedy Club Production
Продолжительность: 8 x  ~ 00:25:00
Перевод: Не требуется

Файл
Кодек: MPEG-4 AVC
Качество: HDTV 1080i
Видео: 1920х1080 (16:9), 25 fps, AVC MPEG-4 (x264), High@L4.0 ~ 5700 kbps , 0.129 bit/pixel
Звук: 48 kHz, MPEG Layer 2, 2 ch, ~ 192 kbps avg

Релиз:


[+] MediaInfo

Общее
Идентификатор                            : 1 (0x1)
Полное имя                               : G:Triada.2019.HDTV.(1080i).ExKinoRayTriada.(01.seriya).2019.HDTV.(1080i).ExKinoRay.ts
Формат                                   : MPEG-TS
Размер файла                             : 1,18 Гбайт
Продолжительность                        : 27 м. 21 с.
Режим общего битрейта                    : Переменный
Общий поток                              : 6194 Кбит/сек

Видео
Идентификатор                            : 211 (0xD3)
Идентификатор меню                       : 2207 (0x89F)
Формат                                   : AVC
Формат/Информация                        : Advanced Video Codec
Профиль формата                          : High@L4
Настройки формата                        : CABAC / 4 Ref Frames
Параметр CABAC формата                   : Да
Параметр RefFrames формата               : 4 кадра
Идентификатор кодека                     : 27
Продолжительность                        : 27 м. 20 с.
Битрейт                                  : 5694 Кбит/сек
Ширина                                   : 1920 пикселей
Высота                                   : 1080 пикселей
Соотношение сторон                       : 16:9
Частота кадров                           : 25,000 кадров/сек
Стандарт вещания                         : Component
Цветовое пространство                    : YUV
Субдискретизация насыщенности            : 4:2:0
Битовая глубина                          : 8 бит
Тип развёртки                            : Чересстрочная
Метод сохранения типа развёртки          : Раздельные поля
Порядок развёртки                        : Верхнее поле первое
Бит/(Пиксели*Кадры)                      : 0.110
Размер потока                            : 1,09 Гбайт (92%)
Цветовой диапазон                        : Limited
Основные цвета                           : BT.709
Характеристики трансфера                 : BT.709
Коэффициенты матрицы                     : BT.709

Аудио
Идентификатор                            : 221 (0xDD)
Идентификатор меню                       : 2207 (0x89F)
Формат                                   : MPEG Audio
Версия формата                           : Version 1
Профиль формата                          : Layer 2
Идентификатор кодека                     : 3
Продолжительность                        : 27 м. 21 с.
Вид битрейта                             : Постоянный
Битрейт                                  : 192 Кбит/сек
Каналы                                   : 2 канала
Частота                                  : 48,0 КГц
Частота кадров                           : 41,667 кадра/сек (1152 SPF)
Метод сжатия                             : С потерями
Задержка видео                           : -80 мс.
Размер потока                            : 37,6 Мбайт (3%)
Язык                                     : Russian



Скриншоты:
[+] Всего файлов в раздаче - 8:
Triada.(01.seriya).2019.HDTV.(1080i).ExKinoRay.ts1.18 GB
Triada.(02.seriya).2019.HDTV.(1080i).ExKinoRay.ts1.13 GB
Triada.(03.seriya).2019.HDTV.(1080i).ExKinoRay.ts1.17 GB
Triada.(04.seriya).2019.HDTV.(1080i).ExKinoRay.ts953.12 MB
Triada.(05.seriya).2019.HDTV.(1080i).ExKinoRay.ts1.05 GB
Triada.(06.seriya).2019.HDTV.(1080i).ExKinoRay.ts1.01 GB
Triada.(07.seriya).2019.HDTV.(1080i).ExKinoRay.ts935.21 MB
Triada.(08.seriya).2019.HDTV.(1080i).ExKinoRay.ts1.10 GB

Показать еще раздачи по запросу триада:
Вчера U Триада [01-14 из 16] (2019) WEBRip 4.79 GB ↑ 112 ↓ 647
Вчера U Триада [01-14 из 16] (2019) WEBRip 720p от ExKinoRay 6.73 GB ↑ 91 ↓ 315
2019-10-17 U Триада [01-13 из 16] (2019) WEBRip 4.45 GB ↑ 55 ↓ 369
2019-10-17 U Триада [01-13 из 16] (2019) WEBRip 720p от ExKinoRay 6.26 GB ↑ 94 ↓ 251
2019-10-16 U Триада [01-12 из 16] (2019) HDTVRip-AVC от Files-x 4.45 GB ↑ 59 ↓ 350
2019-10-16 U Триада [01-12 из 16] (2019) WEBRip 4.10 GB ↑ 39 ↓ 124
2019-10-16 U Триада [01-12 из 16] (2019) WEBRip-AVC от ExKinoRay 5.68 GB ↑ 26 ↓ 98

Отзывы
Зарегистрируйтесь чтобы добавить комментарий.
Обратная связь
Copyleft ©