↑↓Torrent.by
Поиск
Логин: Регистрация
Пароль: Восстановить пароль
Загрузка...

Тайная жизнь домашних животных 2 / The Secret Life of Pets 2 (2019) BDRip-AVC от OlLanDGroup | D, P | Лицензия

Скачать taynaya-zhizn-domashnih-zhivotnyh-2-the-secret-life-of-pets-2019-bdrip-avc-ot-ollandgroup-d-p-licenziya.torrent
U Магнитная ссылка Размер: 1.94 GB Раздают: 119 Качают: 39 Добавлен: 2019-10-09 16:16:22
Тайная жизнь домашних животных 2 / The Secret Life of Pets 2 (2019) BDRip-AVC от OlLanDGroup | D, P | Лицензия

Тайная жизнь домашних животных 2 / The Secret Life of Pets 2
«Обхохочешься»

Год выпуска: 2019
Страна: США, Франция, Япония
Производство: Illumination Entertainment, Universal Pictures
Жанр:  Мультфильм, комедия, приключения, семейный

Режиссёр: Крис Рено, Джонатан дель Валь
В ролях: Пэттон Освальт, Кевин Харт, Харрисон Форд, Эрик Стоунстрит, Дженни Слейт, Тиффани Хэддиш, Лэйк Белл, Дэна Карви, Бобби Мойнахан, Хэннибал Бёресс

Перевод: Дублированный | [Лицензия], Профессиональный многоголосый | [HDRezka Studio]
Субтитры: Русские (форс., полные), Английские (полные)
Реклама: Отсутствует

Описание: Почему человек так долго спит утром? Чем вкусно пахнет? Дай мне, дай, дай, дай! Как заставить человека чесать за ушком весь день? Ой, что это? Ааай, опять мой хвост! Где взять еще вкусняшек? О, мячик-мячик-мячик! Узнайте, что действительно беспокоит ваших животных.

Качество: BDRip-AVC | BDRemux | The.Secret.Life.of.Pets.2.2019.BluRay.1080p.TrueHD.Atmos.7.1.AVC.REMUX-FraMeSToR
Продолжительность: 01:26:04

Формат: MKV
Видео кодек: MPEG-4 AVC
Аудио кодек: AC3
Видео: 1024x554 (2.40:1), 23,976 fps, x264 ~2 145 kbps avg, 0.158 bit/pixel
Аудио #1: 48 kHz, AC3 Dolby Digital, 3/2 (L,C,R,l,r) + LFE ch, ~448.00 kbps avg | RUS (Лицензия)
Аудио #2: 48 kHz, AC3 Dolby Digital, 2 (L,R) ch, ~192.00 kbps avg | RUS (HDRezka Studio)
Аудио #3: 48 kHz, AC3 Dolby Digital, 3/2 (L,C,R,l,r) + LFE ch, ~448.00 kbps avg | ENG

Дата премьеры (мир): 24 мая 2019
Дата премьеры (РФ): 30 мая 2019, «UPI»
Цифровой релиз: 4 сентября 2019, «Universal»

Релиз:


[+] MediaInfo

Общее
Уникальный идентификатор                 : 101107348772806943025828055728178039291 (0x4C10912AD6AF0EDF42CCF0781A6B89FB)
Полное имя                               : F:OlLanDGroupThe.Secret.Life.of.Pets.2.2019.BDRip(AVC).OllanDGroup.mkv
Формат                                   : Matroska
Версия формата                           : Version 4 / Version 2
Размер файла                             : 1,94 Гбайт
Продолжительность                        : 1 ч. 26 м.
Общий поток                              : 3231 Кбит/сек
Название фильма                          : The Secret Life of Pets 2 2019   #TorpedoUK#
Дата кодирования                         : UTC 2019-10-09 13:19:23
Программа кодирования                    : mkvmerge v29.0.0 ('Like It Or Not') 64-bit
Библиотека кодирования                   : libebml v1.3.6 + libmatroska v1.4.9

Видео
Идентификатор                            : 1
Формат                                   : AVC
Формат/Информация                        : Advanced Video Codec
Профиль формата                          : High@L4.1
Параметр CABAC формата                   : Да
Параметр ReFrames формата                : 10 кадров
Идентификатор кодека                     : V_MPEG4/ISO/AVC
Продолжительность                        : 1 ч. 26 м.
Битрейт                                  : 2145 Кбит/сек
Ширина                                   : 1024 пикселя
Высота                                   : 554 пикселя
Соотношение сторон                       : 1,85:1
Режим частоты кадров                     : Постоянный
Частота кадров                           : 23,976 (24000/1001) кадра/сек
Цветовое пространство                    : YUV
Субдискретизация насыщенности            : 4:2:0
Битовая глубина                          : 8 бит
Тип развёртки                            : Прогрессивная
Бит/(Пиксели*Кадры)                      : 0.158
Размер потока                            : 1,29 Гбайт (66%)
Библиотека кодирования                   : x264 core 146 r2538 121396c
Настройки программы                      : cabac=1 / ref=10 / deblock=1:-3:-3 / analyse=0x3:0x113 / me=umh / subme=11 / psy=1 / psy_rd=1.00:0.03 / mixed_ref=1 / me_range=48 / chroma_me=1 / trellis=2 / 8x8dct=1 / cqm=0 / deadzone=21,11 / fast_pskip=1 / chroma_qp_offset=-3 / threads=6 / lookahead_threads=1 / sliced_threads=0 / nr=0 / decimate=1 / interlaced=0 / bluray_compat=0 / constrained_intra=0 / bframes=11 / b_pyramid=2 / b_adapt=2 / b_bias=0 / direct=3 / weightb=1 / open_gop=0 / weightp=2 / keyint=240 / keyint_min=23 / scenecut=40 / intra_refresh=0 / rc_lookahead=40 / rc=2pass / mbtree=0 / bitrate=2145 / ratetol=1.0 / qcomp=0.60 / qpmin=0 / qpmax=69 / qpstep=4 / cplxblur=20.0 / qblur=0.5 / vbv_maxrate=50000 / vbv_bufsize=62500 / nal_hrd=none / filler=0 / ip_ratio=1.40 / pb_ratio=1.30 / aq=1:1.00
Язык                                     : English
Default                                  : Да
Forced                                   : Нет

Аудио #1
Идентификатор                            : 2
Формат                                   : AC-3
Формат/Информация                        : Audio Coding 3
Расширение режима                        : CM (complete main)
Параметр Endianness формата              : Big
Идентификатор кодека                     : A_AC3
Продолжительность                        : 1 ч. 26 м.
Вид битрейта                             : Постоянный
Битрейт                                  : 448 Кбит/сек
Каналы                                   : 6 каналов
Расположение каналов                     : Front: L C R, Side: L R, LFE
Частота                                  : 48,0 КГц
Частота кадров                           : 31,250 кадров/сек (1536 spf)
Битовая глубина                          : 16 бит
Метод сжатия                             : С потерями
Размер потока                            : 276 Мбайт (14%)
Заголовок                                : DUB [License]
Язык                                     : Russian
Default                                  : Да
Forced                                   : Нет

Аудио #2
Идентификатор                            : 3
Формат                                   : AC-3
Формат/Информация                        : Audio Coding 3
Расширение режима                        : CM (complete main)
Параметр Endianness формата              : Big
Идентификатор кодека                     : A_AC3
Продолжительность                        : 1 ч. 26 м.
Вид битрейта                             : Постоянный
Битрейт                                  : 192 Кбит/сек
Каналы                                   : 2 канала
Расположение каналов                     : Front: L R
Частота                                  : 48,0 КГц
Частота кадров                           : 31,250 кадров/сек (1536 spf)
Битовая глубина                          : 16 бит
Метод сжатия                             : С потерями
Размер потока                            : 118 Мбайт (6%)
Заголовок                                : MVO [HDRezka Studio]
Язык                                     : Russian
Default                                  : Нет
Forced                                   : Нет

Аудио #3
Идентификатор                            : 4
Формат                                   : AC-3
Формат/Информация                        : Audio Coding 3
Расширение режима                        : CM (complete main)
Параметр Endianness формата              : Big
Идентификатор кодека                     : A_AC3
Продолжительность                        : 1 ч. 26 м.
Вид битрейта                             : Постоянный
Битрейт                                  : 448 Кбит/сек
Каналы                                   : 6 каналов
Расположение каналов                     : Front: L C R, Side: L R, LFE
Частота                                  : 48,0 КГц
Частота кадров                           : 31,250 кадров/сек (1536 spf)
Битовая глубина                          : 16 бит
Метод сжатия                             : С потерями
Размер потока                            : 276 Мбайт (14%)
Заголовок                                : [Original]
Язык                                     : English
Default                                  : Нет
Forced                                   : Нет

Текст #1
Идентификатор                            : 5
Формат                                   : UTF-8
Идентификатор кодека                     : S_TEXT/UTF8
Идентификатор кодека/Информация          : UTF-8 Plain Text
Продолжительность                        : 1 ч. 1 м.
Битрейт                                  : 0 бит/сек
Count of elements                        : 8
Размер потока                            : 266 байт (0%)
Заголовок                                : Forced
Язык                                     : Russian
Default                                  : Да
Forced                                   : Нет

Текст #2
Идентификатор                            : 6
Формат                                   : UTF-8
Идентификатор кодека                     : S_TEXT/UTF8
Идентификатор кодека/Информация          : UTF-8 Plain Text
Продолжительность                        : 1 ч. 24 м.
Битрейт                                  : 60 бит/сек
Count of elements                        : 1093
Размер потока                            : 37,4 Кбайт (0%)
Заголовок                                : Full
Язык                                     : Russian
Default                                  : Нет
Forced                                   : Нет

Текст #3
Идентификатор                            : 7
Формат                                   : UTF-8
Идентификатор кодека                     : S_TEXT/UTF8
Идентификатор кодека/Информация          : UTF-8 Plain Text
Продолжительность                        : 1 ч. 25 м.
Битрейт                                  : 53 бит/сек
Count of elements                        : 1324
Размер потока                            : 33,3 Кбайт (0%)
Заголовок                                : Full
Язык                                     : English
Default                                  : Нет
Forced                                   : Нет

Меню
00:00:00.000                             : en:Chapter 01
00:05:34.542                             : en:Chapter 02
00:10:07.815                             : en:Chapter 03
00:13:26.305                             : en:Chapter 04
00:16:39.790                             : en:Chapter 05
00:19:56.945                             : en:Chapter 06
00:24:10.073                             : en:Chapter 07
00:28:15.735                             : en:Chapter 08
00:30:54.269                             : en:Chapter 09
00:35:15.113                             : en:Chapter 10
00:39:55.976                             : en:Chapter 11
00:45:47.327                             : en:Chapter 12
00:49:51.822                             : en:Chapter 13
00:56:54.994                             : en:Chapter 14
00:58:35.220                             : en:Chapter 15
01:02:48.931                             : en:Chapter 16
01:07:16.615                             : en:Chapter 17
01:12:48.822                             : en:Chapter 18
01:15:21.808                             : en:Chapter 19
01:18:10.018                             : en:Chapter 20



Скриншоты:
[+] Всего файлов в раздаче - 1:
The.Secret.Life.of.Pets.2.2019.BDRip(AVC).OllanDGroup.mkv1.94 GB

Показать еще раздачи по запросу тайная:
2019-10-11 U Тайная жизнь домашних животных 2 / The Secret Life of Pets 2 (2019) BDRip-AVC от ExKinoRay | Лицензия 2.04 GB ↑ 31 ↓ 7
2019-10-10 U Тайная жизнь домашних животных 2 / The Secret Life of Pets 2 (2019) BDRip 1080p от селезень | D, P | Лицензия 8.81 GB ↑ 80 ↓ 17
2019-10-09 U Тайная жизнь домашних животных 2 / The Secret Life of Pets 2 (2019) BDRip 720p от селезень | D, P | Лицензия 4.91 GB ↑ 67 ↓ 41
2019-10-09 U Тайная жизнь домашних животных 2 / The Secret Life of Pets 2 (2019) HDRip от ExKinoRay | D | Лицензия 3К744.79 MB ↑ 66 ↓ 7
2019-10-09 U Тайная жизнь домашних животных 2 / The Secret Life of Pets 2 (2019) BDRip от MegaPeer | Лицензия 1.46 GB ↑ 60 ↓ 36
2019-09-19 U Penguin Highway / Тайная жизнь пингвинов (2018) BDrip 720p 3.56 GB ↑ 3 ↓ 2
2019-09-08 U Тайная жизнь домашних животных 2 / The Secret Life of Pets 2 (2019) BDRip 1080p от ExKinoRay | iTunes, P 7.25 GB ↑ 63 ↓ 19

Отзывы
Зарегистрируйтесь чтобы добавить комментарий.
Обратная связь
Copyleft ©