↑↓Torrent.by
Поиск
Логин: Регистрация
Пароль: Восстановить пароль
Загрузка...

Дэдвуд / Deadwood (2019) BDRip 1080p от селезень | P, A

Скачать dedvud-deadwood-2019-bdrip-1080p-ot-selezen-p-a.torrent
U Магнитная ссылка Размер: 10.24 GB Раздают: 95 Качают: 59 Добавлен: 2019-10-09 16:16:35
Дэдвуд / Deadwood (2019) BDRip 1080p от селезень | P, A

Название: Дэдвуд
Оригинальное название: Deadwood
Год выхода: 2019
Жанр: Вестерн
Режиссер: Даниэль Минахан
В ролях: Тимоти Олифант, Иэн Макшейн, Молли Паркер, Паула Малкомсон, У. Эрл Браун, Дэйтон Калли, Ким Диккенс, Брэд Дуриф, Анна Ганн, Джон Хоукс

О фильме: В 1889 году поселение Дедвуд наконец получило статус города, но там по-прежнему царит атмосфера беззакония. Выдающийся телевестерн «Дедвуд», закрытый после третьего сезона, возвращается в полнометражной версии, чтобы наконец довести историю до финала. По сюжету герои вестерна встречаются через десять лет после событий третьего сезона, чтобы отпраздновать признание родной Южной Дакоты официальным штатом. Новые времена диктуют свои правила, и в гонке за неизбежными изменениями возродится былое соперничество, а крепкие союзы дадут трещину.

Страна: США
Студия: Home Box Office (HBO)
Продолжительность: 01:50:03
Перевод(ы):
#1: Профессиональный многоголосый | Amedia
#2: Профессиональный многоголосый | FocusStudio
#3: Профессиональный многоголосый | HDRezka Studio
#4: Авторский | Сербин

Качество: BDRip 1080p
Видео: MPEG-4 AVC, 1920x960, 10.8 Mbit/s, 23.976 fps
Аудио #01: 48 kHz, AC3, 5.1, 384 Kbps | Amedia | RUS |
Аудио #02: 48 kHz, AC3, 5.1, 640 Kbps | FocusStudio | RUS |
Аудио #03: 48 kHz, AC3, 2.0, 192 Kbps | HDRezka Studio | RUS |
Аудио #04: 48 kHz, AC3, 5.1, 640 Kbps | Сербин | RUS |
Аудио #05: 48 kHz, AC3, 5.1, 640 Kbps | Оригинал |  ENG |
Субтитры: Русские (Full), английские

Релиз:


[+] MI
General
Unique ID                   : 43117255413416879764779074383613617086 (0x207014D22D5B85EB64E3F294CEB563BE)
Complete name               : D:Video111Deadwood.The.Movie.2019.BDRip.1080p.seleZen.mkv
Format                      : Matroska
Format version              : Version 4
File size                   : 10.2 GiB
Duration                    : 1 h 50 min
Overall bit rate            : 13.3 Mb/s
Movie name                  : Deadwood The Movie 2019 from селезень
Encoded date                : UTC 2019-10-08 19:51:13
Writing application         : mkvmerge v22.0.0 ('At The End Of The World') 64-bit
Writing library             : libebml v1.3.5 + libmatroska v1.4.8

Video
ID                          : 1
Format                      : AVC
Format/Info                 : Advanced Video Codec
Format profile              : High@L4.1
Format settings             : CABAC / 4 Ref Frames
Format settings, CABAC      : Yes
Format settings, Reference  : 4 frames
Codec ID                    : V_MPEG4/ISO/AVC
Duration                    : 1 h 50 min
Bit rate                    : 10.8 Mb/s
Width                       : 1 920 pixels
Height                      : 960 pixels
Display aspect ratio        : 2.000
Frame rate mode             : Constant
Frame rate                  : 23.976 (24000/1001) FPS
Color space                 : YUV
Chroma subsampling          : 4:2:0
Bit depth                   : 8 bits
Scan type                   : Progressive
Bits/(Pixel*Frame)          : 0.245
Stream size                 : 8.32 GiB (81%)
Title                       : Encoded by seleZen
Writing library             : x264 core 148 r2705kMod 3f5ed56
Encoding settings           : cabac=1 / ref=4 / deblock=1:-2:-2 / analyse=0x3:0x113 / me=umh / subme=11 / psy=1 / fade_compensate=0.00 / psy_rd=0.90:0.00 / mixed_ref=1 / me_range=32 / chroma_me=1 / trellis=2 / 8x8dct=1 / cqm=0 / deadzone=21,11 / fast_pskip=0 / chroma_qp_offset=-2 / threads=24 / lookahead_threads=6 / sliced_threads=0 / nr=0 / decimate=0 / interlaced=0 / bluray_compat=0 / constrained_intra=0 / fgo=0 / bframes=12 / b_pyramid=2 / b_adapt=2 / b_bias=0 / direct=3 / weightb=1 / open_gop=0 / weightp=2 / keyint=240 / keyint_min=23 / scenecut=40 / intra_refresh=0 / rc_lookahead=50 / rc=2pass / mbtree=0 / bitrate=10827 / ratetol=1.0 / qcomp=0.60 / qpmin=0 / qpmax=51 / qpstep=4 / cplxblur=20.0 / qblur=0.5 / vbv_maxrate=50000 / vbv_bufsize=62500 / nal_hrd=none / filler=0 / ip_ratio=1.40 / pb_ratio=1.30 / aq=3:0.80
Language                    : English
Default                     : Yes
Forced                      : No

Audio #1
ID                          : 2
Format                      : AC-3
Format/Info                 : Audio Coding 3
Commercial name             : Dolby Digital
Codec ID                    : A_AC3
Duration                    : 1 h 50 min
Bit rate mode               : Constant
Bit rate                    : 384 kb/s
Channel(s)                  : 6 channels
Channel layout              : L R C LFE Ls Rs
Sampling rate               : 48.0 kHz
Frame rate                  : 31.250 FPS (1536 SPF)
Bit depth                   : 16 bits
Compression mode            : Lossy
Stream size                 : 302 MiB (3%)
Title                       : MVO [Amedia]
Language                    : Russian
Service kind                : Complete Main
Default                     : Yes
Forced                      : Yes

Audio #2
ID                          : 3
Format                      : AC-3
Format/Info                 : Audio Coding 3
Commercial name             : Dolby Digital
Codec ID                    : A_AC3
Duration                    : 1 h 50 min
Bit rate mode               : Constant
Bit rate                    : 640 kb/s
Channel(s)                  : 6 channels
Channel layout              : L R C LFE Ls Rs
Sampling rate               : 48.0 kHz
Frame rate                  : 31.250 FPS (1536 SPF)
Bit depth                   : 16 bits
Compression mode            : Lossy
Stream size                 : 504 MiB (5%)
Title                       : MVO [FocusStudio]
Language                    : Russian
Service kind                : Complete Main
Default                     : No
Forced                      : No

Audio #3
ID                          : 4
Format                      : AC-3
Format/Info                 : Audio Coding 3
Commercial name             : Dolby Digital
Codec ID                    : A_AC3
Duration                    : 1 h 50 min
Bit rate mode               : Constant
Bit rate                    : 192 kb/s
Channel(s)                  : 2 channels
Channel layout              : L R
Sampling rate               : 48.0 kHz
Frame rate                  : 31.250 FPS (1536 SPF)
Bit depth                   : 16 bits
Compression mode            : Lossy
Stream size                 : 151 MiB (1%)
Title                       : MVO [HDRezka Studio]
Language                    : Russian
Service kind                : Complete Main
Default                     : No
Forced                      : No

Audio #4
ID                          : 5
Format                      : AC-3
Format/Info                 : Audio Coding 3
Commercial name             : Dolby Digital
Codec ID                    : A_AC3
Duration                    : 1 h 50 min
Bit rate mode               : Constant
Bit rate                    : 640 kb/s
Channel(s)                  : 6 channels
Channel layout              : L R C LFE Ls Rs
Sampling rate               : 48.0 kHz
Frame rate                  : 31.250 FPS (1536 SPF)
Bit depth                   : 16 bits
Compression mode            : Lossy
Stream size                 : 504 MiB (5%)
Title                       : AVO [Serbin]
Language                    : Russian
Service kind                : Complete Main
Default                     : No
Forced                      : No

Audio #5
ID                          : 6
Format                      : AC-3
Format/Info                 : Audio Coding 3
Commercial name             : Dolby Digital
Codec ID                    : A_AC3
Duration                    : 1 h 50 min
Bit rate mode               : Constant
Bit rate                    : 640 kb/s
Channel(s)                  : 6 channels
Channel layout              : L R C LFE Ls Rs
Sampling rate               : 48.0 kHz
Frame rate                  : 31.250 FPS (1536 SPF)
Bit depth                   : 16 bits
Compression mode            : Lossy
Stream size                 : 504 MiB (5%)
Title                       : Original
Language                    : English
Service kind                : Complete Main
Default                     : No
Forced                      : No

Text #1
ID                          : 7
Format                      : UTF-8
Codec ID                    : S_TEXT/UTF8
Codec ID/Info               : UTF-8 Plain Text
Duration                    : 1 h 47 min
Bit rate                    : 79 b/s
Count of elements           : 1285
Stream size                 : 62.4 KiB (0%)
Title                       : Full
Language                    : Russian
Default                     : No
Forced                      : No

Text #2
ID                          : 8
Format                      : UTF-8
Codec ID                    : S_TEXT/UTF8
Codec ID/Info               : UTF-8 Plain Text
Duration                    : 1 h 45 min
Bit rate                    : 52 b/s
Count of elements           : 1407
Stream size                 : 40.4 KiB (0%)
Title                       : Full
Language                    : English
Default                     : No
Forced                      : No

Text #3
ID                          : 9
Format                      : UTF-8
Codec ID                    : S_TEXT/UTF8
Codec ID/Info               : UTF-8 Plain Text
Duration                    : 1 h 49 min
Bit rate                    : 63 b/s
Count of elements           : 1904
Stream size                 : 51.1 KiB (0%)
Title                       : SDH
Language                    : English
Default                     : No
Forced                      : No

Menu
00:00:00.000                : en:Chapter 1
00:00:25.942                : en:Chapter 2
00:11:09.043                : en:Chapter 3
00:22:47.449                : en:Chapter 4
00:32:06.633                : en:Chapter 5
00:41:57.097                : en:Chapter 6
00:50:17.889                : en:Chapter 7
01:00:54.525                : en:Chapter 8
01:11:53.058                : en:Chapter 9
01:20:38.834                : en:Chapter 10
01:28:02.277                : en:Chapter 11
01:38:01.292                : en:Chapter 12
01:45:58.769                : en:Chapter 13



Скриншоты:
[+] Всего файлов в раздаче - 1:
Deadwood.The.Movie.2019.BDRip.1080p.seleZen.mkv10.24 GB

Показать еще раздачи по запросу дэдвуд:
2019-10-10 U Дэдвуд / Deadwood (2019) BDRip от MegaPeer | Amedia 1.46 GB ↑ 188 ↓ 24
2019-10-09 U Дэдвуд / Deadwood (2019) BDRemux 1080p от селезень | P, A 19.70 GB ↑ 40 ↓ 18
2019-06-13 U Дэдвуд / Deadwood: The Movie (2019) WEB-DL 720p | FocusStudio, Amedia 5.58 GB ↑ 28 ↓ 9
2019-06-12 U Дэдвуд / Deadwood (2019) WEB-DL 1080p | Amedia 8.07 GB ↑ 128 ↓ 34
2019-06-03 U Дэдвуд / Deadwood (2019) WEB-DLRip от Scarabey | Amedia 1.44 GB ↑ 272 ↓ 28
2019-06-02 U Дэдвуд / Deadwood (2019) WEB-DLRip от MegaPeer | Amedia 1.46 GB ↑ 336 ↓ 102
2019-06-01 U Дэдвуд / Deadwood (2019) WEB-DL 1080p | Amedia 8.07 GB ↑ 698 ↓ 272

Отзывы
Зарегистрируйтесь чтобы добавить комментарий.
Обратная связь
Copyleft ©