↑↓Torrent.by
Поиск
Логин: Регистрация
Пароль: Восстановить пароль

Удача Логана / Logan Lucky (2017) BDRip 1080p от HDReactor | Лицензия

Скачать udacha-logana-logan-lucky-2017-bdrip-1080p-ot-hdreactor-licenziya.torrent
U Магнитная ссылка Размер: 7.76 GB Раздают: 192 Качают: 31 Добавлен: 2019-10-09 16:16:40
Удача Логана / Logan Lucky (2017) BDRip 1080p от HDReactor | Лицензия

Название: Удача Логана
Оригинальное название: Logan Lucky
Год выпуска: 2017
Жанр:  Комедия, криминал
Выпущено: США, Free Association, Trans-Radial Pictures
Режиссер: Стивен Содерберг
В ролях: Дэниэл Крэйг, Ченнинг Татум, Адам Драйвер, Сет МакФарлейн, Себастьян Стэн, Кэти Холмс, Хилари Суэнк, Райли Кио, Фаррах Маккензи, Джим О`Хейр

О фильме: Будучи полнейшими неудачниками и по совместительству родными братьями, Джимми и Клайд не теряли надежд быстро разбогатеть. Они выросли в нищете, а потому идеей роскошной жизни были просто одержимы. Обучаться, карабкаться по карьерной лестнице и между тем ловко обходить своих конкурентов было явно не для них. Ребята считали, что куда проще и логичнее было вступить в мир преступности, где так и витает запах больших денег. Но и это главным героям оказалось не по зубам. Их долги возрастали с неимоверной скоростью, а вот отдавать их было нечем. Необходимо было рискнуть и при этом не остаться "с носом", но как же это сделать? Джимми и Клайд принимают решение пойти на ограбление. Вот только будучи отнюдь не профессионалами в данном деле, им приходиться идти на хитрость. Есть некий человек, сотню раз совершающий кражи и по ныне остающийся на свободе, вот именно он то им и нужен. Но как все таки обезопасить себя? Что помешает наемному грабителю не обмануть ребят и не скрыться с полученными деньгами? Похоже, братьям придется включить все свою смекалку, ибо не видать им гарантированного обеспеченного будущего, о котором они мечтали долгие годы.

Продолжительность: 01:59:03
Перевод: Дублированный
Субтитры: Русские, английские

Файл
Качество: BDRip (1080p)
Видео: MPEG-4 AVC, 8243 Кбит/с, 1920x804, 23.976 кадр/с
Аудио #1: Русский (AC3, 6 ch, 640 Кбит/с)
Аудио #2: Английский (AC3, 6 ch, 448 Кбит/с)

Релиз:


[+] МедиаИнфо
Формат                                   : Matroska
Версия формата                           : Version 2
Размер файла                             : 7,75 Гбайт
Продолжительность                        : 1 ч. 59 м.
Общий поток                              : 9325 Кбит/сек
Название фильма                          : ~V ad~
Дата кодирования                         : UTC 2019-10-08 17:19:12
Программа кодирования                    : mkvmerge v6.5.0 ('Isn't she lovely') built on Oct 20 2013 12:50:05
Библиотека кодирования                   : libebml v1.3.0 + libmatroska v1.4.1
Обложка                                  : Yes
Attachments                              : cover.jpg

Видео
Идентификатор                            : 1
Формат                                   : AVC
Формат/Информация                        : Advanced Video Codec
Профиль формата                          : High@L4.1
Настройки формата                        : CABAC / 5 Ref Frames
Параметр CABAC формата                   : Да
Параметр RefFrames формата               : 5 кадров
Идентификатор кодека                     : V_MPEG4/ISO/AVC
Продолжительность                        : 1 ч. 59 м.
Битрейт                                  : 8243 Кбит/сек
Ширина                                   : 1920 пикселей
Высота                                   : 804 пикселя
Соотношение сторон                       : 2,40:1
Режим частоты кадров                     : Постоянный
Частота кадров                           : 23,976 (24000/1001) кадра/сек
Цветовое пространство                    : YUV
Субдискретизация насыщенности            : 4:2:0
Битовая глубина                          : 8 бит
Тип развёртки                            : Прогрессивная
Бит/(Пиксели*Кадры)                      : 0.223
Размер потока                            : 6,70 Гбайт (86%)
Заголовок                                : ~V~
Библиотека кодирования                   : x264 core 152 r2851 ba24899
Настройки программы                      : cabac=1 / ref=5 / deblock=1:-3:-3 / analyse=0x3:0x133 / me=umh / subme=11 / psy=1 / psy_rd=1.00:0.00 / mixed_ref=1 / me_range=32 / chroma_me=1 / trellis=2 / 8x8dct=1 / cqm=0 / deadzone=21,11 / fast_pskip=0 / chroma_qp_offset=-2 / threads=12 / lookahead_threads=1 / sliced_threads=0 / nr=0 / decimate=0 / interlaced=0 / bluray_compat=0 / constrained_intra=0 / bframes=9 / b_pyramid=2 / b_adapt=2 / b_bias=0 / direct=3 / weightb=1 / open_gop=0 / weightp=2 / keyint=240 / keyint_min=23 / scenecut=40 / intra_refresh=0 / rc=2pass / mbtree=0 / bitrate=8243 / ratetol=1.0 / qcomp=0.72 / qpmin=0 / qpmax=69 / qpstep=4 / cplxblur=20.0 / qblur=0.5 / ip_ratio=1.28 / pb_ratio=1.30 / aq=3:0.66
Язык                                     : Английский
Default                                  : Да
Forced                                   : Нет

Аудио #1
Идентификатор                            : 2
Формат                                   : AC-3
Формат/Информация                        : Audio Coding 3
Коммерческое название                    : Dolby Digital
Идентификатор кодека                     : A_AC3
Продолжительность                        : 1 ч. 59 м.
Вид битрейта                             : Постоянный
Битрейт                                  : 640 Кбит/сек
Каналы                                   : 6 каналов
Channel layout                           : L R C LFE Ls Rs
Частота                                  : 48,0 КГц
Частота кадров                           : 31,250 кадров/сек (1536 SPF)
Битовая глубина                          : 16 бит
Метод сжатия                             : С потерями
Размер потока                            : 545 Мбайт (7%)
Заголовок                                : Dub
Язык                                     : Русский
Service Kind                             : Complete Main
Default                                  : Да
Forced                                   : Нет

Аудио #2
Идентификатор                            : 3
Формат                                   : AC-3
Формат/Информация                        : Audio Coding 3
Коммерческое название                    : Dolby Digital
Идентификатор кодека                     : A_AC3
Продолжительность                        : 1 ч. 59 м.
Вид битрейта                             : Постоянный
Битрейт                                  : 448 Кбит/сек
Каналы                                   : 6 каналов
Channel layout                           : L R C LFE Ls Rs
Частота                                  : 48,0 КГц
Частота кадров                           : 31,250 кадров/сек (1536 SPF)
Битовая глубина                          : 16 бит
Метод сжатия                             : С потерями
Размер потока                            : 382 Мбайт (5%)
Язык                                     : Английский
Service Kind                             : Complete Main
Default                                  : Нет
Forced                                   : Нет

Текст #1
Идентификатор                            : 4
Формат                                   : UTF-8
Идентификатор кодека                     : S_TEXT/UTF8
Идентификатор кодека/Информация          : UTF-8 Plain Text
Заголовок                                : Forced
Язык                                     : Русский
Default                                  : Да
Forced                                   : Нет

Текст #2
Идентификатор                            : 5
Формат                                   : UTF-8
Идентификатор кодека                     : S_TEXT/UTF8
Идентификатор кодека/Информация          : UTF-8 Plain Text
Заголовок                                : Full
Язык                                     : Русский
Default                                  : Нет
Forced                                   : Нет

Текст #3
Идентификатор                            : 6
Формат                                   : UTF-8
Идентификатор кодека                     : S_TEXT/UTF8
Идентификатор кодека/Информация          : UTF-8 Plain Text
Язык                                     : Английский
Default                                  : Нет
Forced                                   : Нет

Меню
00:00:00.000                             : en:Chapter 01
00:05:41.716                             : en:Chapter 02
00:07:33.202                             : en:Chapter 03
00:10:40.931                             : en:Chapter 04
00:16:24.316                             : en:Chapter 05
00:21:23.282                             : en:Chapter 06
00:29:08.747                             : en:Chapter 07
00:36:03.703                             : en:Chapter 08
00:41:49.423                             : en:Chapter 09
00:47:11.078                             : en:Chapter 10
00:50:08.880                             : en:Chapter 11
00:54:40.527                             : en:Chapter 12
00:57:27.152                             : en:Chapter 13
00:59:16.469                             : en:Chapter 14
01:04:37.039                             : en:Chapter 15
01:07:27.877                             : en:Chapter 16
01:12:12.911                             : en:Chapter 17
01:17:50.248                             : en:Chapter 18
01:19:20.422                             : en:Chapter 19
01:24:02.579                             : en:Chapter 20
01:28:33.099                             : en:Chapter 21
01:32:41.722                             : en:Chapter 22
01:42:27.850                             : en:Chapter 23
01:46:07.652                             : en:Chapter 24
01:50:50.935                             : en:Chapter 25
01:54:55.263                             : en:Chapter 26



[+] х264
x264 [info]: frame I:1134  Avg QP:14.71  size:236217
x264 [info]: frame P:36577 Avg QP:17.25  size: 85826
x264 [info]: frame B:133554 Avg QP:18.56  size: 29544
x264 [info]: consecutive B-frames:  1.4%  1.4% 13.1% 15.9% 17.3% 41.6%  5.4%  1.3%  1.8%  0.9%



Скриншоты:
[+] Всего файлов в раздаче - 1:
Logan.Lucky.2017.BDRip.1080p.HDReactor.mkv7.76 GB

Похожие раздачи по запросу - удача:
2019-10-09 U Удача Логана / Logan Lucky (2017) BDRip-AVC от OlLanDGroup | Лицензия 2.09 GB ↑ 57 ↓ 9
2019-10-09 U Удача Логана / Logan Lucky (2017) BDRip от MegaPeer | Лицензия 1.46 GB ↑ 157 ↓ 14

Отзывы
Зарегистрируйтесь чтобы добавить комментарий.
Обратная связь
Copyleft ©