↑↓Torrent.by
Поиск
Логин: Регистрация
Пароль: Восстановить пароль
Загрузка...

Маркус [01-04 из 08] (2019) WEBRip от GeneralFilm

Скачать markus-01-04-iz-08-2019-webrip-ot-generalfilm.torrent
U Магнитная ссылка Размер: 2.18 GB Раздают: 83 Качают: 52 Добавлен: 2019-10-09 16:16:46
Маркус [01-04 из 08] (2019) WEBRip от GeneralFilm

Оригинальное название: Маркус
Год выпуска: 2019
Жанр:  Детектив, мелодрама
Выпущено: Латвия, Украина, Helio Media, АРТ Територия
Режиссер: Антон Азаров
В ролях: Евгения Розанова, Кирилл Рубцов, Рихард Леперс, Александр Нейкенс, Лилия Ребрик, Агнесе Цируле, Ксения Мишина, Михаил Кукуюк, Ева Шевченко-Головко, Сергей Деньга

О фильме: В основе сюжета – история обычной учительницы Полины Клочко, жизнь которой кардинально изменил трагический случай, – когда из детского сада был похищен её сын Марк. Спустя несколько лет в рубрике международных новостей в репортаже об инциденте в Рижском торговом центре Полина узнает своего сына. Женщина обращается в полицию с просьбой возобновить дело о потере мальчика, но для этого у неё недостаточно оснований. Полина решает действовать своими силами, в результате чего судьба связывает её с майором в отставке и по совместительству отцом одной из её учениц – Денисом Денисовым. Помогая Полине в расследовании, бывший силовик замечает слишком много удивительных совпадений в подобных «делах» за последние 5 лет...

Качество: WEBRip
Видео: XviD build 73, 720x400 (16:9), 25.000 fps, ~ 1550 Kbps (~ 0.190 bit/pixel)
Аудио: 48.0 kHz, AC3, 2/0 ch, 192 kbps
Продолжительность: 4 х ~ 00:45:00
Перевод: Не требуется [Русский]
Cубтитры: нет

Релиз:
[+] MediaInfo
General
Complete name               : D:RazdachiMarkus.2019.WEBRip.GeneralFilmMarkus.e01.avi
Format                      : AVI
Format/Info                 : Audio Video Interleave
File size                   : 557 MiB
Duration                    : 44 min 12 s
Overall bit rate            : 1 761 kb/s
Writing application         : VirtualDubMod 1.5.10.3 | www.virtualdub-fr.org || (build 2550/release)
Writing library             : VirtualDubMod build 2550/release

Video
ID                          : 0
Format                      : MPEG-4 Visual
Format profile              : Advanced Simple@L5
Format settings             : BVOP1 / Custom Matrix
Format settings, BVOP       : 1
Format settings, QPel       : No
Format settings, GMC        : No warppoints
Format settings, Matrix     : Custom
Codec ID                    : XVID
Codec ID/Hint               : XviD
Duration                    : 44 min 12 s
Bit rate                    : 1 559 kb/s
Width                       : 720 pixels
Height                      : 400 pixels
Display aspect ratio        : 16:9
Frame rate                  : 25.000 FPS
Color space                 : YUV
Chroma subsampling          : 4:2:0
Bit depth                   : 8 bits
Scan type                   : Progressive
Compression mode            : Lossy
Bits/(Pixel*Frame)          : 0.217
Stream size                 : 493 MiB (89%)
Writing library             : XviD 73

Audio
ID                          : 1
Format                      : AC-3
Format/Info                 : Audio Coding 3
Commercial name             : Dolby Digital
Codec ID                    : 2000
Duration                    : 44 min 12 s
Bit rate mode               : Constant
Bit rate                    : 192 kb/s
Channel(s)                  : 2 channels
Channel layout              : L R
Sampling rate               : 48.0 kHz
Frame rate                  : 31.250 FPS (1536 SPF)
Bit depth                   : 16 bits
Compression mode            : Lossy
Stream size                 : 60.7 MiB (11%)
Alignment                   : Split accross interleaves
Interleave, duration        : 40  ms (1.00 video frame)
Interleave, preload duratio : 500  ms
Service kind                : Complete Main



Скриншоты:
[+] Всего файлов в раздаче - 4:
Markus.e01.avi556.86 MB
Markus.e02.avi556.96 MB
Markus.e03.avi557.00 MB
Markus.e04.avi557.12 MB

Похожие раздачи по запросу - маркус:
Вчера U Маркус [01-08 из 08] (2019) WEBRip от Files-x 4.51 GB ↑ 75 ↓ 39
2019-10-11 U Маркус [01-08 из 08] (2019) WEBRip от GeneralFilm 4.35 GB ↑ 141 ↓ 80
2019-10-10 U Маркус [01-06 из 08] (2019) WEBRip от GeneralFilm 3.26 GB ↑ 50 ↓ 37

Отзывы
Зарегистрируйтесь чтобы добавить комментарий.
Обратная связь
Copyleft ©