↑↓Torrent.by
Поиск
Логин: Регистрация
Пароль: Восстановить пароль
Загрузка...

Секс ангелов / El sexo de los angeles / The Sex of the Angels (2012) BDRemux 1080p | L, L1

Скачать seks-angelov-el-sexo-de-los-angeles-the-sex-of-angels-2012-bdremux-1080p-l-l1.torrent
U Магнитная ссылка Размер: 18.20 GB Раздают: 76 Качают: 48 Добавлен: 2019-10-09 16:17:05
Секс ангелов / El sexo de los angeles / The Sex of the Angels (2012) BDRemux 1080p | L, L1

Название: Секс ангелов
Оригинальное название: El sexo de los angeles / The sex of the angels
Год выпуска: 2012
Жанр:  Драма, мелодрама, эротика
Режиссер: Хавьер Вильяверде
В ролях: Астрид Берже-Фрисби, Альваро Сервантес, Льоренс Гонсалес, Соня Мендез, Джульета Марокко, Марк Гарсия

О фильме: Карла и Бруно влюблены друг в друга и наслаждаются беззаботным времяпровождением в компании друзей, пока однажды в их жизни не появляется Раи - обаятельный и загадочный парень, живущий по своим собственным правилам. В этой истории о любви и дружбе привычные границы стираются в ритме брейкданса и фанка, представляя смелый, возбуждающий и глубоко трогательный взгляд на романтические взаимоотношения.

Страна: Испания, Бразилия
Студия: CCFBR Produções, Continental Producciones S.A, Dream Team Concept, Televisión de Galicia (TVG) S.A.
Продолжительность: 01:35:37
Перевод: Любительский многоголосый закадровый), Любительский (одноголосый закадровый) - Antonio

Файл
Кодек: MPEG-4 AVC
Качество: BDRemux (1080p)
Видео: 23.9 Мбит/с, 1920x1080
Звук: Русский (АС3, 2 ch, 192 Кбит/с) (АС3, 2 ch, 224 Кбит/с), английский (DTS, 6 ch, 1341 Кбит/с)
Субтитры: Английские, русские, испанские

Релиз от: Marchisio


[+] MI
General
Unique ID                      : 281352511904346688566400071369697380561 (0xD3AA85D3A2128139AB6FC8E982B5C8D1)
Complete name                  : D:TORRENTSEl sexo de los angeles (2012) BD-Remux.mkv
Format                         : Matroska
Format version                 : Version 4
File size                      : 18.2 GiB
Duration                       : 1 h 41 min
Overall bit rate mode          : Variable
Overall bit rate               : 25.7 Mb/s
Encoded date                   : UTC 2019-09-30 19:14:05
Writing application            : mkvmerge v37.0.0 ('Leave It') 64-bit
Writing library                : libebml v1.3.9 + libmatroska v1.5.2
Video
ID                             : 1
Format                         : AVC
Format/Info                    : Advanced Video Codec
Format profile                 : High@L4.1
Format settings                : CABAC / 4 Ref Frames
Format settings, CABAC         : Yes
Format settings, Reference fra : 4 frames
Format settings, GOP           : M=3, N=24
Codec ID                       : V_MPEG4/ISO/AVC
Duration                       : 1 h 41 min
Bit rate mode                  : Variable
Bit rate                       : 23.9 Mb/s
Maximum bit rate               : 35.0 Mb/s
Width                          : 1 920 pixels
Height                         : 1 080 pixels
Display aspect ratio           : 16:9
Frame rate mode                : Constant
Frame rate                     : 25.000 FPS
Standard                       : PAL
Color space                    : YUV
Chroma subsampling             : 4:2:0
Bit depth                      : 8 bits
Scan type                      : MBAFF
Scan type, store method        : Interleaved fields
Scan order                     : Top Field First
Bits/(Pixel*Frame)             : 0.462
Stream size                    : 17.0 GiB (93%)
Default                        : Yes
Forced                         : No
Color range                    : Limited
Color primaries                : BT.709
Transfer characteristics       : BT.709
Matrix coefficients            : BT.709
Audio #1
ID                             : 2
Format                         : AC-3
Format/Info                    : Audio Coding 3
Commercial name                : Dolby Digital
Codec ID                       : A_AC3
Duration                       : 1 h 41 min
Bit rate mode                  : Constant
Bit rate                       : 224 kb/s
Channel(s)                     : 2 channels
Channel layout                 : L R
Sampling rate                  : 48.0 kHz
Frame rate                     : 31.250 FPS (1536 SPF)
Compression mode               : Lossy
Stream size                    : 162 MiB (1%)
Title                          : Antonio
Language                       : Russian
Service kind                   : Complete Main
Default                        : Yes
Forced                         : Yes
Audio #2
ID                             : 3
Format                         : AC-3
Format/Info                    : Audio Coding 3
Commercial name                : Dolby Digital
Codec ID                       : A_AC3
Duration                       : 1 h 41 min
Bit rate mode                  : Constant
Bit rate                       : 192 kb/s
Channel(s)                     : 2 channels
Channel layout                 : L R
Sampling rate                  : 48.0 kHz
Frame rate                     : 31.250 FPS (1536 SPF)
Compression mode               : Lossy
Stream size                    : 139 MiB (1%)
Title                          : MVO
Language                       : Russian
Service kind                   : Complete Main
Default                        : No
Forced                         : No
Audio #3
ID                             : 4
Format                         : DTS XLL
Format/Info                    : Digital Theater Systems
Commercial name                : DTS-HD Master Audio
Codec ID                       : A_DTS
Duration                       : 1 h 41 min
Bit rate mode                  : Variable
Bit rate                       : 1 341 kb/s
Channel(s)                     : 6 channels
Channel layout                 : C L R Ls Rs LFE
Sampling rate                  : 48.0 kHz
Frame rate                     : 93.750 FPS (512 SPF)
Bit depth                      : 16 bits
Compression mode               : Lossless
Stream size                    : 973 MiB (5%)
Title                          : Original
Language                       : Multiple languages
Default                        : No
Forced                         : No
Text #1
ID                             : 5
Format                         : UTF-8
Codec ID                       : S_TEXT/UTF8
Codec ID/Info                  : UTF-8 Plain Text
Duration                       : 1 h 35 min
Bit rate                       : 75 b/s
Count of elements              : 1134
Stream size                    : 52.8 KiB (0%)
Title                          : Antonio
Language                       : Russian
Default                        : No
Forced                         : No
Text #2
ID                             : 6
Format                         : UTF-8
Codec ID                       : S_TEXT/UTF8
Codec ID/Info                  : UTF-8 Plain Text
Duration                       : 1 h 31 min
Bit rate                       : 28 b/s
Count of elements              : 637
Stream size                    : 18.9 KiB (0%)
Title                          : Original
Language                       : Spanish
Default                        : No
Forced                         : No
Text #3
ID                             : 7
Format                         : UTF-8
Codec ID                       : S_TEXT/UTF8
Codec ID/Info                  : UTF-8 Plain Text
Duration                       : 1 h 36 min
Bit rate                       : 46 b/s
Count of elements              : 1144
Stream size                    : 32.5 KiB (0%)
Title                          : English
Language                       : English
Default                        : No
Forced                         : No



Скриншоты:
[+] Всего файлов в раздаче - 1:
El sexo de los angeles (2012) BD-Remux.mkv18.20 GB

Показать еще раздачи по запросу секс:
2019-10-11 U Секс ангелов / El sexo de los ángeles (2012) BDRip 1080p | L, L1 6.50 GB ↑ 29 ↓ 21
2019-09-23 U Хантер С. Томпсон - Лучше, чем секс (2019) MP3 464.71 MB ↑ 25 ↓ 3
2019-06-20 U Секс, ложь, безумие / Любовь его мечты / Dream Lover (1993) LDRip | Unrated | P2, A 1.61 GB ↑ 38 ↓ 23
2019-03-13 U Сладкий секс и любовь / Masittneun sekseu keurigo sarang (2003) DVDRip | L1 1.48 GB ↑ 229 ↓ 34
2019-01-19 U Дарья Варламова, Елена Фоер - Секс. От нейробиологии либидо до виртуального порно. Научно-популярный гид (2018) PDF, EPUB, FB2 15.81 MB ↑ 349 ↓ 32
2018-06-06 U Секс ковбои / Sex Cowboys (2017) DVDRip | L1 705.69 MB ↑ 206 ↓ 53
2017-12-30 U Практика секса. Секс-игрушки (2014) WEBRip 114.31 MB ↑ 229 ↓ 48

Отзывы
Зарегистрируйтесь чтобы добавить комментарий.
Обратная связь
Copyleft ©