↑↓Torrent.by
Поиск
Логин: Регистрация
Пароль: Восстановить пароль

Тайная жизнь домашних животных 2 / The Secret Life of Pets 2 (2019) BDRip 720p от селезень | D, P | Лицензия

Скачать taynaya-zhizn-domashnih-zhivotnyh-2-the-secret-life-of-pets-2019-bdrip-720p-ot-selezen-d-p-licenziya.torrent
U Магнитная ссылка Размер: 4.91 GB Раздают: 82 Качают: 45 Добавлен: 2019-10-09 16:17:15
Тайная жизнь домашних животных 2 / The Secret Life of Pets 2 (2019) BDRip 720p от селезень | D, P | Лицензия

Название: Тайная жизнь домашних животных 2
Оригинальное название: The Secret Life of Pets 2
Год выхода: 2019
Жанр: Мультфильм, комедия, приключения, семейный
Режиссер: Крис Рено, Джонатан дель Валь
В ролях: Пэттон Освальт, Кевин Харт, Харрисон Форд, Эрик Стоунстрит, Дженни Слейт, Тиффани Хэддиш, Лэйк Белл, Дэна Карви, Бобби Мойнахан, Хэннибал Бёресс

О фильме: Почему человек так долго спит утром? Чем вкусно пахнет? Дай мне, дай, дай, дай! Как заставить человека чесать за ушком весь день? Ой, что это? Ааай, опять мой хвост! Где взять еще вкусняшек? О, мячик-мячик-мячик! Узнайте, что действительно беспокоит ваших животных.

Страна: США, Франция, Япония
Студия: Illumination Entertainment, Universal Pictures
Продолжительность: 01:26:06
Перевод(ы):
#1: Дублированный | Лицензия
#2: Профессиональный многоголосый | HDRezka Studio

Качество: BDRip 720p
Видео: MPEG-4 AVC, 1280x694, 6500 Кbit/s, 23.976 fps
Аудио #01: 48 kHz, AC3, 5.1, 640 Kbps | Дублированный | RUS |
Аудио #02: 48 kHz, AC3, 2.0, 192 Kbps | HDRezka Studio | RUS |
Аудио #03: 48 kHz, AC3, 2.0, 192 Kbps | Дублированный | UKR |
Аудио #04: 48 kHz, AC3, 5.1, 640 Kbps | Оригинал |  ENG |
Субтитры: Русские (Forced, full), английские

Релиз:


[+] MI
General
Unique ID                   : 62401311815304300199892745830607727576 (0x2EF20E3535A7E4F698021955E651ABD8)
Complete name               : D:Video111The.Secret.Life.of.Pets.2.2019.Lic.BDRip.720p.seleZen.mkv
Format                      : Matroska
Format version              : Version 4
File size                   : 4.91 GiB
Duration                    : 1 h 26 min
Overall bit rate            : 8 166 kb/s
Movie name                  : The Secret Life of Pets 2 2019  from селезень
Encoded date                : UTC 2019-10-09 03:48:31
Writing application         : mkvmerge v22.0.0 ('At The End Of The World') 64-bit
Writing library             : libebml v1.3.5 + libmatroska v1.4.8

Video
ID                          : 1
Format                      : AVC
Format/Info                 : Advanced Video Codec
Format profile              : High@L4.1
Format settings             : CABAC / 9 Ref Frames
Format settings, CABAC      : Yes
Format settings, Reference  : 9 frames
Codec ID                    : V_MPEG4/ISO/AVC
Duration                    : 1 h 26 min
Bit rate                    : 6 500 kb/s
Width                       : 1 280 pixels
Height                      : 694 pixels
Display aspect ratio        : 1.85:1
Frame rate mode             : Constant
Frame rate                  : 23.976 (24000/1001) FPS
Color space                 : YUV
Chroma subsampling          : 4:2:0
Bit depth                   : 8 bits
Scan type                   : Progressive
Bits/(Pixel*Frame)          : 0.305
Stream size                 : 3.91 GiB (80%)
Title                       : iFT
Writing library             : x264 core 155 r2867+74 66b5600 t_mod_Custom_2 [8-bit@all X86_64]
Encoding settings           : cabac=1 / ref=9 / deblock=1:1:1 / analyse=0x3:0x133 / me=umh / subme=11 / psy=1 / fade_compensate=0.00 / psy_rd=1.00:0.00 / mixed_ref=1 / me_range=32 / chroma_me=1 / trellis=2 / 8x8dct=1 / cqm=0 / deadzone=21,11 / fast_pskip=0 / chroma_qp_offset=-2 / threads=18 / lookahead_threads=3 / sliced_threads=0 / nr=0 / decimate=0 / interlaced=0 / bluray_compat=0 / constrained_intra=0 / fgo=0 / bframes=8 / b_pyramid=2 / b_adapt=2 / b_bias=0 / direct=3 / weightb=1 / open_gop=0 / weightp=2 / keyint=250 / keyint_min=23 / scenecut=40 / intra_refresh=0 / rc=2pass / mbtree=0 / bitrate=6500 / ratetol=1.0 / qcomp=0.60 / qpmin=0:0:0 / qpmax=69:69:69 / qpstep=4 / cplxblur=20.0 / qblur=0.5 / ip_ratio=1.30 / pb_ratio=1.20 / aq=3:0.80 / aq-sensitivity=10.00 / aq-factor=1.00:1.00:1.00 / aq2=0 / aq3=0
Language                    : English
Default                     : Yes
Forced                      : No
Color range                 : Limited
Matrix coefficients         : BT.709

Audio #1
ID                          : 2
Format                      : AC-3
Format/Info                 : Audio Coding 3
Commercial name             : Dolby Digital
Codec ID                    : A_AC3
Duration                    : 1 h 26 min
Bit rate mode               : Constant
Bit rate                    : 640 kb/s
Channel(s)                  : 6 channels
Channel layout              : L R C LFE Ls Rs
Sampling rate               : 48.0 kHz
Frame rate                  : 31.250 FPS (1536 SPF)
Bit depth                   : 16 bits
Compression mode            : Lossy
Stream size                 : 394 MiB (8%)
Title                       : Dub [License]
Language                    : Russian
Service kind                : Complete Main
Default                     : Yes
Forced                      : Yes

Audio #2
ID                          : 3
Format                      : AC-3
Format/Info                 : Audio Coding 3
Commercial name             : Dolby Digital
Codec ID                    : A_AC3
Duration                    : 1 h 26 min
Bit rate mode               : Constant
Bit rate                    : 192 kb/s
Channel(s)                  : 2 channels
Channel layout              : L R
Sampling rate               : 48.0 kHz
Frame rate                  : 31.250 FPS (1536 SPF)
Bit depth                   : 16 bits
Compression mode            : Lossy
Stream size                 : 118 MiB (2%)
Title                       : MVO [HDRezka Studio]
Language                    : Russian
Service kind                : Complete Main
Default                     : No
Forced                      : No

Audio #3
ID                          : 4
Format                      : AC-3
Format/Info                 : Audio Coding 3
Commercial name             : Dolby Digital
Codec ID                    : A_AC3
Duration                    : 1 h 26 min
Bit rate mode               : Constant
Bit rate                    : 192 kb/s
Channel(s)                  : 2 channels
Channel layout              : L R
Sampling rate               : 48.0 kHz
Frame rate                  : 31.250 FPS (1536 SPF)
Bit depth                   : 16 bits
Compression mode            : Lossy
Stream size                 : 118 MiB (2%)
Title                       : Dub
Language                    : Ukrainian
Service kind                : Complete Main
Default                     : No
Forced                      : No

Audio #4
ID                          : 5
Format                      : AC-3
Format/Info                 : Audio Coding 3
Commercial name             : Dolby Digital
Codec ID                    : A_AC3
Duration                    : 1 h 26 min
Bit rate mode               : Constant
Bit rate                    : 640 kb/s
Channel(s)                  : 6 channels
Channel layout              : L R C LFE Ls Rs
Sampling rate               : 48.0 kHz
Frame rate                  : 31.250 FPS (1536 SPF)
Bit depth                   : 16 bits
Compression mode            : Lossy
Stream size                 : 394 MiB (8%)
Title                       : Original
Language                    : English
Service kind                : Complete Main
Default                     : No
Forced                      : No

Text #1
ID                          : 6
Format                      : UTF-8
Codec ID                    : S_TEXT/UTF8
Codec ID/Info               : UTF-8 Plain Text
Duration                    : 1 h 1 min
Bit rate                    : 0 b/s
Count of elements           : 8
Stream size                 : 266 Bytes (0%)
Title                       : Forced
Language                    : Russian
Default                     : Yes
Forced                      : Yes

Text #2
ID                          : 7
Format                      : UTF-8
Codec ID                    : S_TEXT/UTF8
Codec ID/Info               : UTF-8 Plain Text
Duration                    : 1 h 24 min
Bit rate                    : 60 b/s
Count of elements           : 1093
Stream size                 : 37.4 KiB (0%)
Title                       : Full
Language                    : Russian
Default                     : No
Forced                      : No

Text #3
ID                          : 8
Format                      : UTF-8
Codec ID                    : S_TEXT/UTF8
Codec ID/Info               : UTF-8 Plain Text
Duration                    : 1 h 25 min
Bit rate                    : 53 b/s
Count of elements           : 1324
Stream size                 : 33.3 KiB (0%)
Title                       : Full
Language                    : English
Default                     : No
Forced                      : No

Text #4
ID                          : 9
Format                      : UTF-8
Codec ID                    : S_TEXT/UTF8
Codec ID/Info               : UTF-8 Plain Text
Duration                    : 1 h 25 min
Bit rate                    : 77 b/s
Count of elements           : 1924
Stream size                 : 48.5 KiB (0%)
Title                       : SDH
Language                    : English
Default                     : No
Forced                      : No

Menu
00:00:00.000                : en:Chapter 01
00:05:34.542                : en:Chapter 02
00:10:07.815                : en:Chapter 03
00:13:26.305                : en:Chapter 04
00:16:39.790                : en:Chapter 05
00:19:56.945                : en:Chapter 06
00:24:10.073                : en:Chapter 07
00:28:15.735                : en:Chapter 08
00:30:54.269                : en:Chapter 09
00:35:15.113                : en:Chapter 10
00:39:55.976                : en:Chapter 11
00:45:47.327                : en:Chapter 12
00:49:51.822                : en:Chapter 13
00:56:54.994                : en:Chapter 14
00:58:35.220                : en:Chapter 15
01:02:48.931                : en:Chapter 16
01:07:16.615                : en:Chapter 17
01:12:48.822                : en:Chapter 18
01:15:21.808                : en:Chapter 19
01:18:10.018                : en:Chapter 20



Скриншоты:
[+] Всего файлов в раздаче - 1:
The.Secret.Life.of.Pets.2.2019.Lic.BDRip.720p.seleZen.mkv4.91 GB

Показать еще раздачи по запросу тайная:
2019-11-07 U Гийом Мюссо - Тайная жизнь писателей (2019) MP3 164.40 MB ↑ 0 ↓ 0
2019-10-21 U Тайная жизнь домашних животных 2 / The Secret Life of Pets 2 (2019) BDRip-AVC от OlLanDGroup | Лицензия 745.84 MB ↑ 46 ↓ 10
2019-10-11 U Тайная жизнь домашних животных 2 / The Secret Life of Pets 2 (2019) BDRip-AVC от ExKinoRay | Лицензия 2.04 GB ↑ 52 ↓ 12
2019-10-10 U Тайная жизнь домашних животных 2 / The Secret Life of Pets 2 (2019) BDRip 1080p от селезень | D, P | Лицензия 8.81 GB ↑ 85 ↓ 21
2019-10-09 U Тайная жизнь домашних животных 2 / The Secret Life of Pets 2 (2019) HDRip от ExKinoRay | D | Лицензия 3К744.79 MB ↑ 68 ↓ 10
2019-10-09 U Тайная жизнь домашних животных 2 / The Secret Life of Pets 2 (2019) BDRip-AVC от OlLanDGroup | D, P | Лицензия 1.94 GB ↑ 196 ↓ 49
2019-09-08 U Тайная жизнь домашних животных 2 / The Secret Life of Pets 2 (2019) BDRip 1080p от ExKinoRay | iTunes, P 7.25 GB ↑ 67 ↓ 21

Отзывы
Зарегистрируйтесь чтобы добавить комментарий.
Обратная связь
Copyleft ©