↑↓Torrent.by
Поиск
Логин: Регистрация
Пароль: Восстановить пароль

Битва (2019) WEB-DL 1080p | iTunes

Скачать bitva-2019-web-dl-1080p-itunes.torrent
U Магнитная ссылка Размер: 2.94 GB Раздают: 181 Качают: 87 Добавлен: 2019-10-10 14:11:01
Битва (2019) WEB-DL 1080p | iTunes

Битва

Страна: Россия
Производство: ТПО «Рок»
Год выпуска: 2019
Жанр:  драма
Продолжительность: 01:25:12

Режиссер: Анар Аббасов
В ролях: Риналь Мухаметов, Анна Исаева, Екатерина Кукуй, Илья Антоненко, Игорь Миркурбанов, Виталий Коваленко, Анфиса Семина, Алла Еминцева

Описание: Стрит дансер Антон делает стремительную карьеру — его команда побеждает на всех баттлах, он признанный хореограф и всё его будущее связано с танцем. Однако несчастный случай рушит все планы — Антон лишается слуха, а с ним и всех надежд. Оказавшись в непривычном мире тишины, Антон постепенно понимает, что это не конец. Страсть к танцу, воля к победе и любовь к жизни подсказывают ему новый путь к заветной мечте. И его главная битва ещё впереди...

Перевод: не требуется (оригинал) | iTunes
Субтитры: нет

Качество: WEB-DL 1080p
Формат: MKV
Видео кодек: AVC
Аудио кодек: AC3
Видео: 1920x806 (2.40:1), 24.000 fps, MPEG-4 AVC ~4 456 kbps avg
Аудио: 48.0 kHz, AC3 Dolby Digital, 3/2 (L,C,R,l,r) + LFE ch, ~384 kbps

Дата премьеры (РФ): 29 августа 2019, «WDSSPR»


[+] Media Info
General
Уникальный идентификатор                 : 254820843642681743628885715794963428011 (0xBFB4B5962990C5CEA94DD8FA3F6F72AB)
Полное имя                               : BITVA_2019_WEB-DL_1080p-BLUEBIRD.mkv
Формат                                   : Matroska
Версия формата                           : Version 4
Размер файла                             : 2,94 Гбайт
Продолжительность                        : 1 ч. 25 м.
Общий поток                              : 4939 Кбит/сек
Название фильма                          : BITVA_2019_WEB-DL_1080p-BLUEBIRD
Дата кодирования                         : UTC 2019-10-09 18:24:48
Программа кодирования                    : mkvmerge v6.9.1 ('Blue Panther') 32bit built on Apr 18 2014 18:15:44
Библиотека кодирования                   : libebml v1.3.0 + libmatroska v1.4.1
Обложка                                  : Yes

Видео
Идентификатор                            : 1
Формат                                   : AVC
Формат/Информация                        : Advanced Video Codec
Профиль формата                          : High@L4
Настройки формата                        : CABAC / 5 Ref Frames
Параметр CABAC формата                   : Да
Параметр RefFrames формата               : 5 кадров
Идентификатор кодека                     : V_MPEG4/ISO/AVC
Продолжительность                        : 1 ч. 25 м.
Битрейт                                  : 4456 Кбит/сек
Ширина                                   : 1920 пикселей
Высота                                   : 806 пикселей
Соотношение сторон                       : 2,40:1
Режим частоты кадров                     : Постоянный
Частота кадров                           : 24,000 кадра/сек
Цветовое пространство                    : YUV
Субдискретизация насыщенности            : 4:2:0
Битовая глубина                          : 8 бит
Тип развёртки                            : Прогрессивная
Бит/(Пиксели*Кадры)                      : 0.120
Размер потока                            : 2,65 Гбайт (90%)
Заголовок                                : BITVA_2019_WEB-DL_1080p-BLUEBIRD
Язык                                     : English
Default                                  : Да
Forced                                   : Нет
Цветовой диапазон                        : Limited
Основные цвета                           : BT.709
Характеристики трансфера                 : BT.709
Коэффициенты матрицы                     : BT.709

Аудио
Идентификатор                            : 2
Формат                                   : AC-3
Формат/Информация                        : Audio Coding 3
Коммерческое название                    : Dolby Digital
Идентификатор кодека                     : A_AC3
Продолжительность                        : 1 ч. 25 м.
Вид битрейта                             : Постоянный
Битрейт                                  : 384 Кбит/сек
Каналы                                   : 6 каналов
ChannelLayout                            : L R C LFE Ls Rs
Частота                                  : 48,0 КГц
Частота кадров                           : 31,250 кадров/сек (1536 SPF)
Битовая глубина                          : 16 бит
Метод сжатия                             : С потерями
Размер потока                            : 234 Мбайт (8%)
Заголовок                                : [ORIGINAL] DD 5.1 @ 384 kbps (iTunes)
Язык                                     : Russian
Default                                  : Да
Forced                                   : Нет

Меню
00:00:00.000                             : en:Глава 1
00:07:07.791                             : en:Глава 2
00:13:57.874                             : en:Глава 3
00:21:01.165                             : en:Глава 4
00:26:05.165                             : en:Глава 5
00:33:23.498                             : en:Глава 6
00:40:20.789                             : en:Глава 7
00:46:02.872                             : en:Глава 8
00:51:56.663                             : en:Глава 9
00:57:26.454                             : en:Глава 10
01:02:56.079                             : en:Глава 11
01:07:39.079                             : en:Глава 12
01:17:09.870                             : en:Глава 13



Скриншоты:
[+] Всего файлов в раздаче - 1:
BITVA_2019_WEB-DL_1080p-BLUEBIRD.mkv2.94 GB

Показать еще раздачи по запросу битва:
2019-11-04 U Битва экстрасенсов [20х01-06] (2019) WEBRip 720p от Files-x 9.07 GB ↑ 27 ↓ 72
2019-11-03 U Битва экстрасенсов [20х01-06] (2019) SATRip 5.51 GB ↑ 98 ↓ 557
2019-10-28 U Битва экстрасенсов [20х01-05] (2019) WEBRip от Files-x 4.61 GB ↑ 27 ↓ 139
2019-10-28 U Битва экстрасенсов [20х01-05] (2019) WEBRip 720p от Files-x 7.55 GB ↑ 27 ↓ 114
2019-10-21 U Битва экстрасенсов [20х01-04] (2019) WEBRip 720p от Files-x 6.17 GB ↑ 51 ↓ 141
2019-10-16 U Освобождая Родину. Битва за Кpым: крах Готенланда [01-02 из 02] (2019) SATRip 1,014.54 MB ↑ 47 ↓ 14
2019-10-14 U Битва экстрасенсов [20х01-03] (2019) WEBRip от Files-x 2.75 GB ↑ 41 ↓ 84

Отзывы
Зарегистрируйтесь чтобы добавить комментарий.
Обратная связь
Copyleft ©