↑↓Torrent.by
Поиск
Логин: Регистрация
Пароль: Восстановить пароль

Битва (2019) WEB-DLRip | iTunes

Скачать bitva-2019-web-dlrip-itunes.torrent
U Магнитная ссылка Размер: 1.46 GB Раздают: 96 Качают: 30 Добавлен: 2019-10-11 05:34:30
Битва (2019) WEB-DLRip | iTunes

Название: Битва
Год выпуска: 2019
Жанр:  Драма
Режиссер: Анар Аббасов
В ролях: Риналь Мухаметов, Анна Исаева, Екатерина Кукуй, Илья Антоненко, Игорь Миркурбанов, Виталий Коваленко, Анфиса Семина, Алла Еминцева, Артем Карпов, Дмитрий Хасис, Михаил Кулешов, Гурген Манукян, Максим Авдеев, Александр Саюталин

О фильме: Стрит дансер Антон делает стремительную карьеру — его команда побеждает на всех баттлах, он признанный хореограф и всё его будущее связано с танцем. Однако несчастный случай рушит все планы — Антон лишается слуха, а с ним и всех надежд. Оказавшись в непривычном мире тишины, Антон постепенно понимает, что это не конец. Страсть к танцу, воля к победе и любовь к жизни подсказывают ему новый путь к заветной мечте. И его главная битва ещё впереди.

Страна: Россия
Студия: ТПО «Рок»
Продолжительность: 01:25:12
Перевод: Не требуется | iTunes

Файл
Качество: WEB-DLRip
Формат: AVI
Видео: 720x304 (2.37:1), 24.000 fps, XviD build 73 ~2059 kbps avg, 0.39 bit/pixel
Аудио: 48 kHz, AC3 Dolby Digital, 3/2 (L,C,R,l,r) + LFE ch, ~384 kbps - iTunes
Субтитры: Нет


[+] MediaInfo
Формат                                   : AVI
Формат/Информация                        : Audio Video Interleave
Размер файла                             : 1,46 Гбайт
Продолжительность                        : 1 ч. 25 м.
Общий поток                              : 2452 Кбит/сек
Название фильма                          : Битва_2019_WEB-DLRip
Программа кодирования                    : VirtualDubMod 1.5.10.3 | (build 2550/release)
Авторское право                          : порошков

Видео
Идентификатор                            : 0
Формат                                   : MPEG-4 Visual
Профиль формата                          : Advanced Simple@L5
Настройки формата                        : BVOP1 / Custom Matrix
Параметр BVOP формата                    : 1
Параметр QPel формата                    : Нет
Параметр GMC формата                     : Без точки перехода
Параметр матрицы формата                 : Выборочная
Идентификатор кодека                     : XVID
Идентификатор кодека/Подсказка           : XviD
Продолжительность                        : 1 ч. 25 м.
Битрейт                                  : 2059 Кбит/сек
Ширина                                   : 720 пикселей
Высота                                   : 304 пикселя
Соотношение сторон                       : 2,35:1
Частота кадров                           : 24,000 кадра/сек
Цветовое пространство                    : YUV
Субдискретизация насыщенности            : 4:2:0
Битовая глубина                          : 8 бит
Тип развёртки                            : Прогрессивная
Метод сжатия                             : С потерями
Бит/(Пиксели*Кадры)                      : 0.392
Размер потока                            : 1,23 Гбайт (84%)
Библиотека кодирования                   : XviD 73

Аудио
Идентификатор                            : 1
Формат                                   : AC-3
Формат/Информация                        : Audio Coding 3
Коммерческое название                    : Dolby Digital
Идентификатор кодека                     : 2000
Продолжительность                        : 1 ч. 25 м.
Вид битрейта                             : Постоянный
Битрейт                                  : 384 Кбит/сек
Каналы                                   : 6 каналов
ChannelLayout                            : L R C LFE Ls Rs
Частота                                  : 48,0 КГц
Частота кадров                           : 31,250 кадров/сек (1536 SPF)
Метод сжатия                             : С потерями
Размер потока                            : 234 Мбайт (16%)
Выравнивание                             : Разделение по промежуткам
Продолжительность промежутка             : 42  мс. (1,00 видеокадр)
Время предзагрузки промежутка            : 500  мс.



Скриншоты:
[+] Всего файлов в раздаче - 1:
Битва_2019_WEB-DLRip.avi1.46 GB

Показать еще раздачи по запросу битва:
2019-11-04 U Битва экстрасенсов [20х01-06] (2019) WEBRip 720p от Files-x 9.07 GB ↑ 27 ↓ 72
2019-11-03 U Битва экстрасенсов [20х01-06] (2019) SATRip 5.51 GB ↑ 98 ↓ 557
2019-10-28 U Битва экстрасенсов [20х01-05] (2019) WEBRip от Files-x 4.61 GB ↑ 27 ↓ 139
2019-10-28 U Битва экстрасенсов [20х01-05] (2019) WEBRip 720p от Files-x 7.55 GB ↑ 27 ↓ 114
2019-10-21 U Битва экстрасенсов [20х01-04] (2019) WEBRip 720p от Files-x 6.17 GB ↑ 51 ↓ 141
2019-10-16 U Освобождая Родину. Битва за Кpым: крах Готенланда [01-02 из 02] (2019) SATRip 1,014.54 MB ↑ 47 ↓ 14
2019-10-14 U Битва экстрасенсов [20х01-03] (2019) WEBRip от Files-x 2.75 GB ↑ 41 ↓ 84

Отзывы
Зарегистрируйтесь чтобы добавить комментарий.
Обратная связь
Copyleft ©