↑↓Torrent.by
Поиск
Логин: Регистрация
Пароль: Восстановить пароль

Король Лев / The Lion King (2019) UHD BDRemux 2160p от селезень | 4K | HDR | iTunes

Скачать korol-lev-the-lion-king-2019-uhd-bdremux-2160p-ot-selezen-4k-hdr-itunes.torrent
U Магнитная ссылка Размер: 49.81 GB Раздают: 400 Качают: 321 Добавлен: 2019-10-12 05:34:51
Король Лев / The Lion King (2019) UHD BDRemux 2160p от селезень | 4K | HDR | iTunes

Название: Король Лев
Оригинальное название: The Lion King
Год выхода: 2019
Жанр: Мультфильм, мюзикл, драма, приключения, семейный
Режиссер: Джон Фавро
В ролях: Джеймс Эрл Джонс, Дональд Гловер, Чиветел Эджиофор, Джон Оливер, Джон Кани, Элфри Вудард, Джейдон Маккрэри, Шахади Райт Джозеф, Пенни Джонсон, Кигэн-Майкл Ки

О фильме: Действие фильма разворачивается в африканской саванне и повествует о молодом льве по имени Симба, который потерял своего отца Муфасу из-за своего злобного дяди Шрама и был изгнан из прайда в дальние края пустыни. Годы спустя он возвращается, чтобы вернуть себе трон.

Страна: США
Студия: Walt Disney Pictures, Fairview Entertainment
Продолжительность: 01:58:14
Перевод: Дублированный | iTunes

Качество: BDRemux 2160p
Видео: 3840x2160 at 23.976 fps, MPEG-H HEVC HDR Video, 54300 kbps avg
Аудио #01: 48 kHz, AC3, 5.1, 384 Kbps | iTunes | RUS |
Аудио #02: 48 kHz, TrueHD, 7.1, 4929 Kbps | Оригинал |  ENG |
Аудио #03: 48 kHz, AC3, 5.1, 640 Kbps | Оригинал |  ENG |
Субтитры: Русские (Full, SDH), английские

Релиз:


[+] MI
General
Unique ID                   : 316554401266920690056713070200023254613 (0xEE2628F88FD860528B6968C6356D8655)
Complete name               : D:Video111The.Lion.King.2019.BDREMUX.2160p.HDR.seleZen.mkv
Format                      : Matroska
Format version              : Version 4
File size                   : 49.8 GiB
Duration                    : 1 h 58 min
Overall bit rate mode       : Variable
Overall bit rate            : 60.3 Mb/s
Movie name                  : The Lion King 2019 4K from селезень
Encoded date                : UTC 2019-10-11 15:17:51
Writing application         : mkvmerge v22.0.0 ('At The End Of The World') 64-bit
Writing library             : libebml v1.3.5 + libmatroska v1.4.8

Video
ID                          : 1
Format                      : HEVC
Format/Info                 : High Efficiency Video Coding
Format profile              : Main 10@L5.1@High
HDR format                  : SMPTE ST 2086, HDR10 compatible
Codec ID                    : V_MPEGH/ISO/HEVC
Duration                    : 1 h 58 min
Bit rate                    : 54.3 Mb/s
Width                       : 3 840 pixels
Height                      : 2 160 pixels
Display aspect ratio        : 16:9
Frame rate mode             : Constant
Frame rate                  : 23.976 (24000/1001) FPS
Color space                 : YUV
Chroma subsampling          : 4:2:0 (Type 2)
Bit depth                   : 10 bits
Bits/(Pixel*Frame)          : 0.273
Stream size                 : 44.8 GiB (90%)
Writing library             : ATEME Titan File 3.9.0 (4.9.0.0)        
Language                    : English
Default                     : Yes
Forced                      : No
Color range                 : Limited
Color primaries             : BT.2020
Transfer characteristics    : PQ
Matrix coefficients         : BT.2020 non-constant
Mastering display color pri : Display P3
Mastering display luminance : min: 0.0001 cd/m2, max: 1000 cd/m2

Audio #1
ID                          : 2
Format                      : AC-3
Format/Info                 : Audio Coding 3
Commercial name             : Dolby Digital
Codec ID                    : A_AC3
Duration                    : 1 h 58 min
Bit rate mode               : Constant
Bit rate                    : 384 kb/s
Channel(s)                  : 6 channels
Channel layout              : L R C LFE Ls Rs
Sampling rate               : 48.0 kHz
Frame rate                  : 31.250 FPS (1536 SPF)
Bit depth                   : 16 bits
Compression mode            : Lossy
Stream size                 : 325 MiB (1%)
Title                       : iTunes
Language                    : Russian
Service kind                : Complete Main
Default                     : Yes
Forced                      : Yes

Audio #2
ID                          : 3
Format                      : MLP FBA 16-ch
Format/Info                 : Meridian Lossless Packing FBA with 16-channel presentation
Commercial name             : Dolby TrueHD with Dolby Atmos
Codec ID                    : A_TRUEHD
Duration                    : 1 h 58 min
Bit rate mode               : Variable
Bit rate                    : 4 929 kb/s
Maximum bit rate            : 7 332 kb/s
Channel(s)                  : 8 channels
Channel layout              : L R C LFE Ls Rs Lb Rb
Sampling rate               : 48.0 kHz
Frame rate                  : 1 200.000 FPS (40 SPF)
Compression mode            : Lossless
Stream size                 : 4.07 GiB (8%)
Title                       : Original
Language                    : English
Default                     : No
Forced                      : No
Number of dynamic objects   : 13
Bed channel count           : 1 channel
Bed channel configuration   : LFE

Audio #3
ID                          : 4
Format                      : AC-3
Format/Info                 : Audio Coding 3
Commercial name             : Dolby Digital
Codec ID                    : A_AC3
Duration                    : 1 h 58 min
Bit rate mode               : Constant
Bit rate                    : 640 kb/s
Channel(s)                  : 6 channels
Channel layout              : L R C LFE Ls Rs
Sampling rate               : 48.0 kHz
Frame rate                  : 31.250 FPS (1536 SPF)
Bit depth                   : 16 bits
Compression mode            : Lossy
Stream size                 : 541 MiB (1%)
Language                    : English
Service kind                : Complete Main
Default                     : No
Forced                      : No

Text #1
ID                          : 5
Format                      : UTF-8
Codec ID                    : S_TEXT/UTF8
Codec ID/Info               : UTF-8 Plain Text
Duration                    : 1 h 55 min
Bit rate                    : 68 b/s
Count of elements           : 1371
Stream size                 : 58.1 KiB (0%)
Title                       : Full
Language                    : Russian
Default                     : No
Forced                      : No

Text #2
ID                          : 6
Format                      : UTF-8
Codec ID                    : S_TEXT/UTF8
Codec ID/Info               : UTF-8 Plain Text
Duration                    : 1 h 47 min
Bit rate                    : 89 b/s
Count of elements           : 1642
Stream size                 : 70.4 KiB (0%)
Title                       : SDH
Language                    : Russian
Default                     : No
Forced                      : No

Text #3
ID                          : 7
Format                      : UTF-8
Codec ID                    : S_TEXT/UTF8
Codec ID/Info               : UTF-8 Plain Text
Duration                    : 1 h 46 min
Bit rate                    : 50 b/s
Count of elements           : 1369
Stream size                 : 39.1 KiB (0%)
Title                       : Full
Language                    : English
Default                     : No
Forced                      : No

Menu
00:00:00.000                : en:"Circle Of Life/Nants' Ingonyama"
00:04:50.499                : en:"Life's Not Fair"
00:10:51.067                : en:"Everything The Light Touches"
00:17:47.692                : en:"I Just Can't Wait To Be King"
00:23:53.015                : en:Elephant Graveyard
00:30:00.132                : en:Under The Stars
00:33:05.066                : en:"Be Prepared"
00:37:09.310                : en:Stampede
00:43:42.912                : en:Scar Takes Over
00:50:47.336                : en:Timon And Pumbaa
00:55:02.716                : en:"Hakuna Matata"
00:59:48.460                : en:Scar's Kingdom
01:06:27.233                : en:"Line Of Indifference"
01:14:32.093                : en:"The Lion Sleeps Tonight"
01:18:26.410                : en:"Can You Feel The Love Tonight"
01:23:07.900                : en:"He Lives In You"
01:28:04.654                : en:"Spirit"
01:33:10.877                : en:Simba Confronts Scar
01:37:13.745                : en:Battle For Pride Rock
01:44:39.190                : en:The Rightful King
01:47:47.336                : en:End Credits/"Never Too Late"



Скриншоты:
[+] Всего файлов в раздаче - 1:
The.Lion.King.2019.BDREMUX.2160p.HDR.seleZen.mkv49.81 GB

Показать еще раздачи по запросу король:
2019-12-01 U Король Лев / The Lion King (2019) BDRip 720p от Scarabey | Лицензия 5.66 GB ↑ 55 ↓ 11
2019-11-30 U Король Лев / The Lion King (2019) HDRip от Scarabey | Лицензия 1К745.00 MB ↑ 74 ↓ 8
2019-11-29 U Король Лев / The Lion King (2019) HDRip от Scarabey | Лицензия 1.44 GB ↑ 207 ↓ 9
2019-11-28 U Король Лев / The Lion King (2019) BDRip-HEVC 1080p от HEVC-CLUB | Лицензия 7.75 GB ↑ 29 ↓ 11
2019-11-27 U Король Лев / The Lion King (2019) BDRip 720p от k.e.n & MegaPeer | Лицензия 1К4.37 GB ↑ 59 ↓ 26
2019-11-27 U Король Лев / The Lion King (2019) BDRip 720p от ExKinoRay | Лицензия 4.71 GB ↑ 65 ↓ 28
2019-11-27 U Король Лев / The Lion King (2019) BDRip от MegaPeer | Лицензия 2.18 GB ↑ 112 ↓ 36

Отзывы
Зарегистрируйтесь чтобы добавить комментарий.
Обратная связь
Copyleft ©