↑↓Torrent.by
Поиск
Логин: Регистрация
Пароль: Восстановить пароль

Маркус [01-08 из 08] (2019) WEBRip от Files-x

Скачать markus-01-08-iz-2019-webrip-ot-files-x.torrent
U Магнитная ссылка Размер: 4.51 GB Раздают: 83 Качают: 41 Добавлен: 2019-10-12 05:36:52
Маркус [01-08 из 08] (2019)  WEBRip от Files-x

Оригинальное название: Маркус
Год выхода: 2019
Жанр: Детектив, мелодрама
Режиссер: Антон Азаров
В ролях: Евгения Розанова, Кирилл Рубцов, Рихард Леперс, Александр Нейкенс, Лилия Ребрик, Агнесе Цируле, Ксения Мишина, Михаил Кукуюк, Ева Шевченко-Головко, Сергей Деньга

О фильме:
В основе сюжета – история обычной учительницы Полины Клочко, жизнь которой кардинально изменил трагический случай, – когда из детского сада был похищен её сын Марк. Спустя несколько лет в рубрике международных новостей в репортаже об инциденте в Рижском торговом центре Полина узнает своего сына. Женщина обращается в полицию с просьбой возобновить дело о потере мальчика, но для этого у неё недостаточно оснований. Полина решает действовать своими силами, в результате чего судьба связывает её с майором в отставке и по совместительству отцом одной из её учениц – Денисом Денисовым. Помогая Полине в расследовании, бывший силовик замечает слишком много удивительных совпадений в подобных «делах» за последние 5 лет...

Страна: Латвия, Украина
Студия: Helio Media, АРТ Територия, ТРК Украина
Продолжительность: 8 х 00:44:17
Перевод: Не требуется

Файл
Кодек: XviD
Качество: WEBRip
Видео: XviD, ~ 1624 Кбит/с, 720x400, 25 кадр/с
Звук: AC3, 2 ch, 192 Кбит/с

Релиз:
[+] MediaInfo

General
Complete name                    : C:01.Маркус.(2019).WEBRip.by.Nicodem.Files-x.avi
Format                           : AVI
Format/Info                      : Audio Video Interleave
File size                        : 578 MiB
Duration                         : 44mn 17s
Overall bit rate                 : 1 826 Kbps
Writing application              : VirtualDubMod 1.5.10.3 | www.virtualdub-fr.org || (build 2550/release)
Writing library                  : VirtualDubMod build 2550/release

Video
ID                               : 0
Format                           : MPEG-4 Visual
Format profile                   : Advanced Simple@L5
Format settings, BVOP            : 1
Format settings, QPel            : No
Format settings, GMC             : No warppoints
Format settings, Matrix          : Custom
Codec ID                         : XVID
Codec ID/Hint                    : XviD
Duration                         : 44mn 17s
Bit rate                         : 1 624 Kbps
Width                            : 720 pixels
Height                           : 400 pixels
Display aspect ratio             : 16:9
Frame rate                       : 25.000 fps
Color space                      : YUV
Chroma subsampling               : 4:2:0
Bit depth                        : 8 bits
Scan type                        : Progressive
Compression mode                 : Lossy
Bits/(Pixel*Frame)               : 0.226
Stream size                      : 515 MiB (89%)
Writing library                  : XviD 73

Audio
ID                               : 1
Format                           : AC-3
Format/Info                      : Audio Coding 3
Mode extension                   : CM (complete main)
Codec ID                         : 2000
Duration                         : 44mn 17s
Bit rate mode                    : Constant
Bit rate                         : 192 Kbps
Channel(s)                       : 2 channels
Channel positions                : Front: L R
Sampling rate                    : 48.0 KHz
Bit depth                        : 16 bits
Compression mode                 : Lossy
Stream size                      : 60.8 MiB (11%)
Alignment                        : Split accross interleaves
Interleave, duration             : 40 ms (1.00 video frame)
Interleave, preload duration     : 500 ms



Скриншоты:
[+] Всего файлов в раздаче - 8:
03.Маркус.(2019).WEBRip.by.Nicodem.Files-x.avi550.03 MB
01.Маркус.(2019).WEBRip.by.Nicodem.Files-x.avi578.43 MB
02.Маркус.(2019).WEBRip.by.Nicodem.Files-x.avi582.01 MB
07.Маркус.(2019).WEBRip.by.Nicodem.Files-x.avi582.05 MB
04.Маркус.(2019).WEBRip.by.Nicodem.Files-x.avi582.16 MB
05.Маркус.(2019).WEBRip.by.Nicodem.Files-x.avi582.25 MB
06.Маркус.(2019).WEBRip.by.Nicodem.Files-x.avi582.28 MB
08.Маркус.(2019).WEBRip.by.Nicodem.Files-x.avi582.35 MB

Похожие раздачи по запросу - маркус:
2019-10-11 U Маркус [01-08 из 08] (2019) WEBRip от GeneralFilm 4.35 GB ↑ 148 ↓ 85

Отзывы
Зарегистрируйтесь чтобы добавить комментарий.
Обратная связь
Copyleft ©