↑↓Torrent.by
Поиск
Логин: Регистрация
Пароль: Восстановить пароль

Дылды [01-09 из 21] (2019) WEB-DL 1080p от ExKinoRay

Скачать dyldy-01-09-iz-21-2019-web-dl-1080p-ot-exkinoray.torrent
U Магнитная ссылка Размер: 7.81 GB Раздают: 71 Качают: 247 Добавлен: 2019-10-12 05:37:05
Дылды [01-09 из 21] (2019) WEB-DL 1080p от ExKinoRay

Оригинальное название: Дылды
Год выхода: 2019
Жанр: Комедия, спорт
Режиссер: Сергей Сенцов
В ролях: Павел Деревянко, Анна Невская, Дарья Урсуляк, Татьяна Орлова, Павел Майков, Анна Антонова, Сергей Рубеко, Ангелина Поплавская, Изабель Эйдлен, Евгения Тремасова, Юлия Макарова (II), Дмитрий Караневский, Степан Девонин, Анатолий Горячев, Марина Коваленко, Александр Андриенко, Николай Лунин (II), Дарья Пицик, Надежда Карпова, Маша Тухарь

О фильме:
Успешный тренер, сексист и бабник Михаил Ковалёв теряет работу из-за скандального характера и неуважительного отношения к женщинам. Чтобы вернуться в Суперлигу, ему предстоит выиграть чемпионат с провинциальной студенческой женской командой. Помешать ему в этом постараются проректор-перфекционист Ирина и затаившая обиду экс-девушка Наталья.

Страна: Россия
Студия: Art Pictures Vision по заказу телеканала СТС
Продолжительность: 9 х ~ 00:25:00
Перевод: Не требуется

Файл
Кодек: MPEG-4 AVC
Качество: WEB-DL 1080p
Видео: 1920х1080 (16:9), 25 fps, AVC MPEG-4 (x264), High@L4.1 ~ 4900 kbps avg, 0.094 bit/pixel
Звук: 48 kHz, AC3, 2 ch, 192 kbps avg

Релиз:


[+] Mi
 
MediaInfo
General
Unique ID                                : 242169629320904286174638376573119249838 (0xB6302C900CCD4244983A43D2AE6C3DAE)
Complete name                            : G:Dyldy.2019.WEB-DL.(1080p).ExKinoRayDyldy.s01.(01.seriya).2019.WEB-DL.(1080p).ExKinoRay.mkv
Format                                   : Matroska
Format version                           : Version 4 / Version 2
File size                                : 963 MiB
Duration                                 : 26 min 3 s
Overall bit rate mode                    : Variable
Overall bit rate                         : 5 169 kb/s
Encoded date                             : UTC 2019-09-26 16:41:14
Writing application                      : mkvmerge v6.9.1 ('Blue Panther') 64bit built on Apr 18 2014 18:23:38
Writing library                          : libebml v1.3.0 + libmatroska v1.4.1

Video
ID                                       : 1
Format                                   : AVC
Format/Info                              : Advanced Video Codec
Format profile                           : High@L4.1
Format settings                          : CABAC / 5 Ref Frames
Format settings, CABAC                   : Yes
Format settings, RefFrames               : 5 frames
Format settings, GOP                     : M=4, N=50
Codec ID                                 : V_MPEG4/ISO/AVC
Duration                                 : 26 min 3 s
Bit rate mode                            : Variable
Bit rate                                 : 4 874 kb/s
Maximum bit rate                         : 40.0 Mb/s
Width                                    : 1 920 pixels
Height                                   : 1 080 pixels
Display aspect ratio                     : 16:9
Frame rate mode                          : Constant
Frame rate                               : 25.000 FPS
Color space                              : YUV
Chroma subsampling                       : 4:2:0
Bit depth                                : 8 bits
Scan type                                : Progressive
Bits/(Pixel*Frame)                       : 0.094
Stream size                              : 908 MiB (94%)
Default                                  : Yes
Forced                                   : No
Color range                              : Limited
Color primaries                          : BT.709
Transfer characteristics                 : BT.709
Matrix coefficients                      : BT.709

Audio
ID                                       : 2
Format                                   : AC-3
Format/Info                              : Audio Coding 3
Codec ID                                 : A_AC3
Duration                                 : 26 min 3 s
Bit rate mode                            : Constant
Bit rate                                 : 192 kb/s
Channel(s)                               : 2 channels
Channel positions                        : Front: L R
Sampling rate                            : 48.0 kHz
Frame rate                               : 31.250 FPS (1536 SPF)
Bit depth                                : 16 bits
Compression mode                         : Lossy
Stream size                              : 35.8 MiB (4%)
Language                                 : Russian
Default                                  : Yes
Forced                                   : No

General
Unique ID                                : 231468755320197994041875572565774318753 (0xAE2342BDA2E8429E9E8D443DEB523CA1)
Complete name                            : G:Dyldy.2019.WEB-DL.(1080p).ExKinoRayDyldy.s01.(02.seriya).2019.WEB-DL.(1080p).ExKinoRay.mkv
Format                                   : Matroska
Format version                           : Version 4 / Version 2
File size                                : 895 MiB
Duration                                 : 24 min 12 s
Overall bit rate mode                    : Variable
Overall bit rate                         : 5 168 kb/s
Encoded date                             : UTC 2019-09-26 17:29:48
Writing application                      : mkvmerge v6.9.1 ('Blue Panther') 64bit built on Apr 18 2014 18:23:38
Writing library                          : libebml v1.3.0 + libmatroska v1.4.1

Video
ID                                       : 1
Format                                   : AVC
Format/Info                              : Advanced Video Codec
Format profile                           : High@L4.1
Format settings                          : CABAC / 5 Ref Frames
Format settings, CABAC                   : Yes
Format settings, RefFrames               : 5 frames
Format settings, GOP                     : M=4, N=50
Codec ID                                 : V_MPEG4/ISO/AVC
Duration                                 : 24 min 12 s
Bit rate mode                            : Variable
Bit rate                                 : 4 873 kb/s
Maximum bit rate                         : 40.0 Mb/s
Width                                    : 1 920 pixels
Height                                   : 1 080 pixels
Display aspect ratio                     : 16:9
Frame rate mode                          : Constant
Frame rate                               : 25.000 FPS
Color space                              : YUV
Chroma subsampling                       : 4:2:0
Bit depth                                : 8 bits
Scan type                                : Progressive
Bits/(Pixel*Frame)                       : 0.094
Stream size                              : 844 MiB (94%)
Default                                  : Yes
Forced                                   : No
Color range                              : Limited
Color primaries                          : BT.709
Transfer characteristics                 : BT.709
Matrix coefficients                      : BT.709

Audio
ID                                       : 2
Format                                   : AC-3
Format/Info                              : Audio Coding 3
Codec ID                                 : A_AC3
Duration                                 : 24 min 12 s
Bit rate mode                            : Constant
Bit rate                                 : 192 kb/s
Channel(s)                               : 2 channels
Channel positions                        : Front: L R
Sampling rate                            : 48.0 kHz
Frame rate                               : 31.250 FPS (1536 SPF)
Bit depth                                : 16 bits
Compression mode                         : Lossy
Stream size                              : 33.2 MiB (4%)
Language                                 : Russian
Default                                  : Yes
Forced                                   : No

General
Unique ID                                : 191803301815708561839599985824092033828 (0x904BF8E4B72B0DADB6DF26272CA29324)
Complete name                            : G:Dyldy.2019.WEB-DL.(1080p).ExKinoRayDyldy.s01.(03.seriya).2019.WEB-DL.(1080p).ExKinoRay.mkv
Format                                   : Matroska
Format version                           : Version 4 / Version 2
File size                                : 871 MiB
Duration                                 : 23 min 33 s
Overall bit rate mode                    : Variable
Overall bit rate                         : 5 167 kb/s
Encoded date                             : UTC 2019-09-26 17:30:28
Writing application                      : mkvmerge v6.9.1 ('Blue Panther') 64bit built on Apr 18 2014 18:23:38
Writing library                          : libebml v1.3.0 + libmatroska v1.4.1

Video
ID                                       : 1
Format                                   : AVC
Format/Info                              : Advanced Video Codec
Format profile                           : High@L4.1
Format settings                          : CABAC / 5 Ref Frames
Format settings, CABAC                   : Yes
Format settings, RefFrames               : 5 frames
Format settings, GOP                     : M=4, N=50
Codec ID                                 : V_MPEG4/ISO/AVC
Duration                                 : 23 min 33 s
Bit rate mode                            : Variable
Bit rate                                 : 4 872 kb/s
Maximum bit rate                         : 40.0 Mb/s
Width                                    : 1 920 pixels
Height                                   : 1 080 pixels
Display aspect ratio                     : 16:9
Frame rate mode                          : Constant
Frame rate                               : 25.000 FPS
Color space                              : YUV
Chroma subsampling                       : 4:2:0
Bit depth                                : 8 bits
Scan type                                : Progressive
Bits/(Pixel*Frame)                       : 0.094
Stream size                              : 821 MiB (94%)
Default                                  : Yes
Forced                                   : No
Color range                              : Limited
Color primaries                          : BT.709
Transfer characteristics                 : BT.709
Matrix coefficients                      : BT.709

Audio
ID                                       : 2
Format                                   : AC-3
Format/Info                              : Audio Coding 3
Codec ID                                 : A_AC3
Duration                                 : 23 min 33 s
Bit rate mode                            : Constant
Bit rate                                 : 192 kb/s
Channel(s)                               : 2 channels
Channel positions                        : Front: L R
Sampling rate                            : 48.0 kHz
Frame rate                               : 31.250 FPS (1536 SPF)
Bit depth                                : 16 bits
Compression mode                         : Lossy
Stream size                              : 32.4 MiB (4%)
Language                                 : Russian
Default                                  : Yes
Forced                                   : No



Скриншоты:
[+] Всего файлов в раздаче - 9:
Dyldy.s01.(01.seriya).2019.WEB-DL.(1080p).ExKinoRay.mkv963.32 MB
Dyldy.s01.(02.seriya).2019.WEB-DL.(1080p).ExKinoRay.mkv894.65 MB
Dyldy.s01.(03.seriya).2019.WEB-DL.(1080p).ExKinoRay.mkv870.91 MB
Dyldy.s01.(04.seriya).2019.WEB-DL.(1080p).ExKinoRay.mkv885.93 MB
Dyldy.s01.(05.seriya).2019.WEB-DL.(1080p).ExKinoRay.mkv883.54 MB
Dyldy.s01.(06.seriya).2019.WEB-DL.(1080p).ExKinoRay.mkv876.26 MB
Dyldy.s01.(07.seriya).2019.WEB-DL.(1080p).ExKinoRay.mkv871.70 MB
Dyldy.s01.(08.seriya).2019.WEB-DL.(1080p).ExKinoRay.mkv869.02 MB
Dyldy.s01.(09.seriya).2019.WEB-DL.(1080p).ExKinoRay.mkv882.79 MB

Показать еще раздачи по запросу дылды:
2019-11-01 U Дылды [01-21 из 21] (2019) WEB-DLRip от Files-x 6.35 GB ↑ 67 ↓ 205
2019-11-01 U Дылды [01-21 из 21] (2019) WEB-DLRip от GeneralFilm 6.02 GB ↑ 77 ↓ 281
2019-11-01 U Дылды [S01] (2019) WEB-DLRip-AVC от Files-x 6.32 GB ↑ 51 ↓ 76
2019-11-01 U Дылды [01-21 из 21] (2019) WEB-DL 1080p от ExKinoRay 18.41 GB ↑ 55 ↓ 170
2019-11-01 U Дылды [01-21 из 21] (2019) WEB-DL 720p от ExKinoRay 12.42 GB ↑ 114 ↓ 258
2019-11-01 U Дылды [01-21 из 21] (2019) WEB-DLRip 7.18 GB ↑ 206 ↓ 924
2019-10-31 U Дылды [01-21 из 21] (2019) WEB-DL 1080p 18.39 GB ↑ 85 ↓ 579

Отзывы
Зарегистрируйтесь чтобы добавить комментарий.
Обратная связь
Copyleft ©